Cкачать бесплатно фильмы.
Поиск фильмов
Log Pass забыли?
  Бесплатные фильмы
Скачать Ебаться под музыку веселее - Holly Halston
КатегорияЖёсткое / Зрелые / Анал / Оргия / Груди
Похожие фильмы



Похожие онлайн фильмы
Постер фильма Ебаться под музыку веселее - Holly Halston
Ебаться под музыку веселее - Holly Halston

Обзор



Шлюху ебут под мелодичный мотив

http://thumbnails116.imagebam.com/50684/28069c506835230.jpg http://thumbnails115.imagebam.com/50684/50bbc4506835231.jpg http://thumbnails116.imagebam.com/50684/96099f506835232.jpg http://thumbnails115.imagebam.com/50684/6aa265506835233.jpg http://thumbnails115.imagebam.com/50684/05643a506835234.jpg http://thumbnails115.imagebam.com/50684/35c742506835235.jpg http://thumbnails116.imagebam.com/50684/037d91506835236.jpg http://thumbnails116.imagebam.com/50684/61b756506835237.jpg

General
Complete name                  : C:UsersUserDownloadsAvsPhelpHolly Halston.mp4
Format                         : MPEG-4
Format profile                 : Sony PSP
Codec ID                       : MSNV
File size                      : 209 MiB
Duration                       : 4mn 50s
Overall bit rate mode          : Variable
Overall bit rate               : 6 052 Kbps
Encoded date                   : UTC 2016-09-17 12:24:55
Tagged date                    : UTC 2016-09-17 12:24:55

Video
ID                             : 1
Format                         : AVC
Format/Info                    : Advanced Video Codec
Format profile                 : Main@L3.0
Format settings, CABAC         : Yes
Format settings, ReFrames      : 2 frames
Codec ID                       : avc1
Codec ID/Info                  : Advanced Video Coding
Duration                       : 4mn 50s
Bit rate mode                  : Variable
Bit rate                       : 5 920 Kbps
Maximum bit rate               : 8 000 Kbps
Width                          : 640 pixels
Height                         : 480 pixels
Display aspect ratio           : 16:9
Frame rate mode                : Constant
Frame rate                     : 25.000 fps
Color space                    : YUV
Chroma subsampling             : 4:2:0
Bit depth                      : 8 bits
Scan type                      : Progressive
Bits/(Pixel*Frame)             : 0.771
Stream size                    : 205 MiB (98%)
Language                       : English
Encoded date                   : UTC 2016-09-17 12:24:55
Tagged date                    : UTC 2016-09-17 12:24:55

Audio
ID                             : 2
Format                         : AAC
Format/Info                    : Advanced Audio Codec
Format profile                 : LC
Codec ID                       : 40
Duration                       : 4mn 50s
Source duration                : 4mn 50s
Bit rate mode                  : Constant
Bit rate                       : 128 Kbps
Channel(s)                     : 2 channels
Channel positions              : Front: L R
Sampling rate                  : 48.0 KHz
Compression mode               : Lossy
Stream size                    : 4.43 MiB (2%)
Source stream size             : 4.43 MiB (2%)
Language                       : English
Encoded date                   : UTC 2016-09-17 12:24:55
Tagged date                    : UTC 2016-09-17 12:24:55
mdhd_Duration                  : 290069


Размер209.27 MB (219,432,533 байт)
Скачать Ебаться под музыку веселее - Holly Halston

:: Отзывы



Отзывы отсутствуют.

 :: Отзывов нет
РЕГИСТРАЦИЯ.

Смотрите бесплатное порно или эротику

footerLeft
Информация для правообладателей На ёгли вы скачаете порно, бесплатные фильмы, а также новинки кино. Все это бесплатно и без смс.