C  .
  )     )  

Log Pass ?
 
Fuck The Teacher



Fuck The Teacher
Fuck The Teacher
Fuck The Teacher
Fuck The Teacher



! !








Format                           : Windows Media
File size                        : 163 MiB
Duration                         : 20mn 32s
Overall bit rate mode            : Variable
Overall bit rate                 : 1 110 Kbps
Maximum Overall bit rate         : 1 599 Kbps
Movie name                       : FUCK THE TEACHER #2
Encoded date                     : UTC 2008-06-02 21:19:04.611

Video
ID                               : 2
Format                           : WMV2
Codec ID                         : WMV2
Codec ID/Info                    : Windows Media Video 8
Duration                         : 20mn 31s
Bit rate mode                    : Variable
Bit rate                         : 749 Kbps
Width                            : 480 pixels
Height                           : 352 pixels
Display aspect ratio             : 4:3
Frame rate                       : 29.970 fps
Resolution                       : 24 bits
Bits/(Pixel*Frame)               : 0.148
Stream size                      : 110 MiB (67%)
Language                         : English (US)

Audio
ID                               : 1
Format                           : WMA
Format version                   : Version 2
Codec ID                         : 161
Codec ID/Info                    : Windows Media Audio
Duration                         : 20mn 32s
Bit rate mode                    : Constant
Bit rate                         : 64.0 Kbps
Channel(s)                       : 2 channels
Sampling rate                    : 44.1 KHz
Resolution                       : 16 bits
Stream size                      : 9.41 MiB (6%)
Language                         : English (US)





!
163.02 MB (170,940,614 )
Fuck The Teacher

::


button_offline  62
avatar 696662

!!! ;-) :-P :-D

button_offline  OsBoris
avatar 748301

,   ;-)

button_offline  star69
avatar 411439

:-) :-) :-) :-)

button_offline  mixail2642
avatar 752882

! :w00t: :w00t: :w00t: :w00t: :w00t:

button_offline  sultanxan
avatar 751185

!!!!!!!!

button_offline  jonni666
avatar 616847

!!!!   :w00t: :w00t: :w00t: :w00t:

button_offline 
avatar 327422

, !!!

.



footerLeft
, , . .