Cкачать бесплатно фильмы.
Поиск фильмов
Log Pass забыли?
  Бесплатные фильмы
Скачать Double Cum Cocktails Двойные Коктейли Малафьи
КатегорияЗрелые / Жёсткое / Анал
Похожие фильмы



Похожие онлайн фильмы
Постер фильма Double Cum Cocktails Двойные Коктейли Малафьи
  Double Cum Cocktails                                Двойные Коктейли Малафьи
Фото фильма Double Cum Cocktails Двойные Коктейли Малафьи
  Double Cum Cocktails                                Двойные Коктейли Малафьи

Обзор



ДЕВУШКА ЛЮБИТ ПИТЬ СПЕРМУ ИЗ МАРТИНКИ!А ПАРНИ ЛЮБЯТ ТРАХАТЬ ДЕВУШКУ ВО ВСЕ ДЫРЫ!





Format                           : Windows Media
File size                        : 178 MiB
Duration                         : 31mn 8s
Overall bit rate mode            : Variable
Overall bit rate                 : 801 Kbps
Maximum Overall bit rate         : 2 269 Kbps
Movie name                       : Double Cum Cocktails #1
Encoded date                     : UTC 2005-05-02 02:46:01.234

Video
ID                               : 2
Format                           : WMV2
Codec ID                         : WMV2
Codec ID/Info                    : Windows Media Video 8
Duration                         : 31mn 6s
Bit rate mode                    : Variable
Bit rate                         : 771 Kbps
Width                            : 480 pixels
Height                           : 352 pixels
Display aspect ratio             : 4:3
Frame rate                       : 23.976 fps
Resolution                       : 24 bits
Bits/(Pixel*Frame)               : 0.190
Stream size                      : 172 MiB (96%)
Language                         : English (US)

Audio
ID                               : 1
Format                           : WMA
Format version                   : Version 2
Codec ID                         : 161
Codec ID/Info                    : Windows Media Audio
Duration                         : 31mn 8s
Bit rate mode                    : Constant
Bit rate                         : 64.0 Kbps
Channel(s)                       : 2 channels
Sampling rate                    : 44.1 KHz
Resolution                       : 16 bits
Stream size                      : 14.3 MiB (8%)
Language                         : English (US)













ПРИЯТНОГО ПРОСМОТРА ГОСПОДА!





:weirdo: :weirdo: :weirdo: :weirdo: :weirdo:
Размер178.28 MB (186,944,436 байт)
Скачать Double Cum Cocktails Двойные Коктейли Малафьи

:: ОТЗЫВЫ


button_offline Отзыв от uiras
avatar 744881

спасибо!!! :w00t: :w00t: :w00t:

button_offline Отзыв от козлов62
avatar 696662

отлично!!! ;-) :w00t: :-D

button_offline Отзыв от waw50
avatar 748346

Спасибо!Нормальное видио.

button_offline Отзыв от якут
avatar 327422

Благодарствую, прикольное видео !!!

РЕГИСТРАЦИЯ.

Смотрите бесплатное порно или эротику

footerLeft
Информация для правообладателей На ёгли вы скачаете порно, бесплатные фильмы, а также новинки кино. Все это бесплатно и без смс.