Cкачать бесплатно фильмы.
Поиск фильмов
Log Pass забыли?
  Бесплатные фильмы
Скачать Области тьмы , Limitless [Unrated Extended Cut] 720p [2011 | HDTV]
КатегорияТриллер / Мистика
Похожие фильмы



Похожие онлайн фильмы
Постер фильма Области тьмы , Limitless [Unrated Extended Cut] 720p [2011 | HDTV]
 Области тьмы ,  Limitless [Unrated Extended Cut] 720p [2011 | HDTV]
Фото фильма Области тьмы , Limitless [Unrated Extended Cut] 720p [2011 | HDTV]
 Области тьмы ,  Limitless [Unrated Extended Cut] 720p [2011 | HDTV]

Трэйлер


THE_hhk1Gzc&feature=player_embedded

Обзор



Название: Области тьмы
Оригинальное название:  Limitless [Unrated Extended Cut] 720p
Год выхода: 2011
Режиссер: Нил Бёргер
В ролях: Брэдли Купер, Роберт Де Ниро, Эбби Корниш, Эндрю Ховард, Анна Фрил, Джонни Витуорт, Томас Арана, Роберт Джон Бёрк, Даррен Голдштейн, Нед Эйзенберг
Продолжительность:  01:45:33
Язык: Русский Профессиональный (полное дублирование)

О фильме:
«Что если одна таблетка NZT сделает тебя богатым и могущественным?»

Нью-йоркский писатель Эдди, желая преодолеть чёрную полосу в жизни, принимает засекреченный препарат под названием NZT. Таблетка выводит мозг парня на работу в нереальной мощности. Этот творческий наркотик меняет всю жизнь Эдди, за короткий срок он зарабатывает кучу денег, но скоро начинает страдать от зловещих побочных эффектов препарата. А когда пытается найти других NZT-гениев, чтобы понять, как можно справиться с этим пристрастием, он узнает страшную правду…


http://s017.radikal.ru/i400/1112/a8/ff76ca9353fe.gif


http://thumbnails64.imagebam.com/16689/2d2657166883585.jpg http://thumbnails60.imagebam.com/16689/710888166883592.jpg http://thumbnails47.imagebam.com/16689/5a53a6166883596.jpg http://thumbnails61.imagebam.com/16689/f23c01166883601.jpg http://thumbnails33.imagebam.com/16689/97cf0c166883605.jpg http://thumbnails64.imagebam.com/16689/806522166883615.jpg http://thumbnails27.imagebam.com/16689/1fdcb2166883619.jpg http://thumbnails52.imagebam.com/16689/bf9f49166883624.jpg


AUDIO INFO


Audio #1

ID                               : 2
Format                           : DTS
Format/Info                      : Digital Theater Systems
Codec ID                         : A_DTS
Duration                         : 1h 45mn
Bit rate mode                    : Constant
Bit rate                         : 1 510 Kbps
Channel(s)                       : 6 channels
Channel positions                : Front: L C R, Side: L R, LFE
Sampling rate                    : 48.0 KHz
Bit depth                        : 24 bits
Compression mode                 : Lossy
Stream size                      : 1.11 GiB (16%)
Title                            : Dub
Language                         : Russian

Audio #2
ID                               : 3
Format                           : DTS
Format/Info                      : Digital Theater Systems
Codec ID                         : A_DTS
Duration                         : 1h 45mn
Bit rate mode                    : Constant
Bit rate                         : 1 510 Kbps
Channel(s)                       : 6 channels
Channel positions                : Front: L C R, Side: L R, LFE
Sampling rate                    : 48.0 KHz
Bit depth                        : 24 bits
Compression mode                 : Lossy
Stream size                      : 1.11 GiB (16%)
Language                         : English

Audio #3
ID                               : 4
Format                           : AAC
Format/Info                      : Advanced Audio Codec
Format profile                   : HE-AAC / LC
Codec ID                         : A_AAC
Duration                         : 1h 45mn
Channel(s)                       : 2 channels
Channel positions                : Front: L R
Sampling rate                    : 48.0 KHz / 24.0 KHz
Compression mode                 : Lossy
Title                            : Commentary
Language                         : English


http://s42.radikal.ru/i095/1112/79/d1d67ef78403.gif


http://s011.radikal.ru/i318/1112/05/36b3cd8cfa48.png


ФАЙЛ
Качество: HDTV
Видео:  x264 / 6412 kbps / 1280x534 / 23,976 fps / High Profile 4.1
Звук:  Аудио 1: Русский дубляж / DTS / 5.1 / 48 kHz / 1536 kbps Аудио 2: Английский / DTS / 5.1 / 48 kHz / 1536 kbps Аудио 3: Английский / LC AAC / 2.0 / 48 kHz / 64 kbps (коменты)
Размер7.00 GB (7,516,485,310 байт)
Скачать Области тьмы , Limitless [Unrated Extended Cut] 720p [2011 | HDTV]

:: ОТЗЫВЫ


button_offline Отзыв от KORAGON
avatar 601421

Хороший фильмец. Хорошо смотрится с пЛаНоМ. =)

button_offline Отзыв от ZZZ3Zor
avatar 281787

Фильм классный! Всем советую! :weirdo: :weirdo: :weirdo: :-D

button_offline Отзыв от xwqdhjn
avatar 780974

спасибо раздающему за труды, отличный фильм в отличном качестве! :-)

button_offline Отзыв от Drugggg
avatar 795541

Фильм просто бомба  мне очень понравился давненько уже смотрел ща в хорошем качестве гляну  :-)

РЕГИСТРАЦИЯ.

Смотрите бесплатное порно или эротику

footerLeft
Информация для правообладателей На ёгли вы скачаете порно, бесплатные фильмы, а также новинки кино. Все это бесплатно и без смс.