Cкачать бесплатно фильмы.
Поиск фильмов
Log Pass забыли?
  Бесплатные фильмы
Скачать Погоня , Abduction 720p [2011 | HDTV]
КатегорияБоевик / Драма
Похожие фильмы



Похожие онлайн фильмы
Постер фильма Погоня , Abduction 720p [2011 | HDTV]
 Погоня ,  Abduction 720p [2011 | HDTV]

Трэйлер


e5k7ECYZ-ds&feature=player_embedded

Обзор



Название:  Погоня
Оригинальное название:  Abduction 720p
Год выхода: 2011
Режиссер: Джон Синглтон
В ролях:  Тэйлор Лотнер, Лили Коллинз, Джейсон Айзекс, Альфред Молина, Сигурни Уивер, Мария Белло, Антоник Смит, Микаэл Нюквист, Дэнзел Уитакер, Джейк Андолина
Продолжительность:  01:45:59
Язык: Русский Профессиональный (полное дублирование)

О фильме:
« Сражаясь за правду, он борется за жизнь »

Главный герой в один прекрасный день обнаруживает на сайте по розыску пропавших детей собственное фото. Отойдя от шока, он понимает, что родители похитили его и вырастили как собственного ребенка. Юноша начинает расследование, которое, в итоге, превращается в цепь жестоких и местами смертельно опасных событий.


http://s017.radikal.ru/i400/1112/a8/ff76ca9353fe.gif


http://thumbnails62.imagebam.com/16633/92ac71166322573.jpg http://thumbnails43.imagebam.com/16633/66172b166322575.jpg http://thumbnails27.imagebam.com/16633/78ec1d166322580.jpg http://thumbnails55.imagebam.com/16633/f598cb166322585.jpg http://thumbnails46.imagebam.com/16633/dae23f166322587.jpg http://thumbnails62.imagebam.com/16633/06ecbe166322591.jpg http://thumbnails55.imagebam.com/16633/b576b9166322599.jpg http://thumbnails62.imagebam.com/16633/add5a9166322602.jpg


INFO AUDIO


Audio #1
ID                                      : 2
Format                                : AC-3
Format/Info                        : Audio Coding 3
Mode extension                   : CM (complete main)
Muxing mode                       : Header stripping
Codec ID                             : A_AC3
Duration                              : 1h 45mn
Bit rate mode                       : Constant
Bit rate                                : 448 Kbps
Channel(s)                            : 6 channels
Channel positions                   : Front: L C R, Side: L R, LFE
Sampling rate                        : 48.0 KHz
Bit depth                              : 16 bits
Compression mode                 : Lossy
Stream size                           : 340 MiB (6%)
Language                             : Russian

Audio #2
ID                                      : 3
Format                                : DTS
Format/Info                         : Digital Theater Systems
Muxing mode                       : Header stripping
Codec ID                             : A_DTS
Duration                              : 1h 45mn
Bit rate mode                       : Constant
Bit rate                                : 1 510 Kbps
Channel(s)                            : 6 channels
Channel positions                   : Front: L C R, Side: L R, LFE
Sampling rate                        : 48.0 KHz
Bit depth                              : 24 bits
Compression mode                 : Lossy
Delay relative to video             : 11ms
Stream size                            : 1.12 GiB (21%)
Title                                      : English DTS 5.1 1509Kbps



http://s42.radikal.ru/i095/1112/79/d1d67ef78403.gif


http://s011.radikal.ru/i318/1112/05/36b3cd8cfa48.png  

ФАЙЛ
Качество: HDTV
Видео: AVC, 1280x534 (2.35:1), 23.976 fps, 5 258 Kbps (0.321 bit/pixel)
Звук: Audio #1: AC-3, 48.0 KHz, 6 ch, 448 Kbps, CBR (Russian) Audio #2: DTS, 48.0 KHz, 6 ch, 1 510 Kbps, CBR
Размер5.34 GB (5,735,269,436 байт)
Скачать Погоня , Abduction 720p [2011 | HDTV]

:: ОТЗЫВЫ


button_offline Отзыв от bog1_boss
avatar 394646

переключите на русский

button_offline Отзыв от vit41113495
avatar 447988

как филь :-O отпишитесь

button_offline Отзыв от Pitbuli
avatar 611886

говорят что фильм очень классный...

button_offline Отзыв от Pitbuli
avatar 611886

респект автору за труд

button_offline Отзыв от папакевсм
avatar 835618

а где перевод и какое нахрен полное дублирование

button_offline Отзыв от Eoglimen
avatar 834224

[папакевсм] A ti shto ne znaeshi kak meniati yazik??? esli u tebea KM Player to najimi Ctrl+X e vseo budet good!  ;-)

button_offline Отзыв от shkara
avatar 756757

почиму он не воспроизводиться в КМП плеере  :-/ :sly: (заранее спасибо
)

РЕГИСТРАЦИЯ.

Смотрите бесплатное порно или эротику

footerLeft
Информация для правообладателей На ёгли вы скачаете порно, бесплатные фильмы, а также новинки кино. Все это бесплатно и без смс.