Cкачать бесплатно фильмы.
Поиск фильмов
Log Pass забыли?
  Бесплатные фильмы
Скачать 120 дней разврата - Le 120 giornate di sodoma
КатегорияКлассика
Похожие фильмы



Похожие онлайн фильмы
Постер фильма 120 дней разврата - Le 120 giornate di sodoma
120 дней разврата - Le 120 giornate di sodoma
Фото фильма 120 дней разврата - Le 120 giornate di sodoma
120 дней разврата - Le 120 giornate di sodoma

Обзор



Год выпуска: 1995
Страна: Италия / США
Жанр: Feature (Foreign, Historical / Period Piece, Shot-On-Film, Anal, Exciting Locales)
Продолжительность: 01:40
Язык: Итальянский
Перевод: Профессиональный (двухголосый)
Режиссер: Joe D'Amato
Студия: Capital Film / VCA / Tip Top
В ролях: Anita Blond, Bernadette Manfredi, Cheyenne, Deborah Wells, Kelly Trump, Backey Jakic, Frank Gun, Jovi Stud, Mark Davis, Max Magnum, Sean Michaels, Laetitia Bisset

До того, как случилась Французская революция и испортила все удовольствия, богатые аристократы проводили большую часть времени, потворствуя своим плотским радостям в огромных масштабах. Огромные банкеты могли быть устроены для так называемых "леди и джентльменов" с главным блюдом, которым могла быть оргия распущенных растлителей.




http://i28.fastpic.ru/thumb/2012/0110/d7/6723edf6b426f2963345cc955b989cd7.jpeg http://i28.fastpic.ru/thumb/2012/0110/d3/3923c37abf0893c022122abe99f8cad3.jpeg http://i28.fastpic.ru/thumb/2012/0110/26/36f13c57c2040a6e1308d8366a8c6926.jpeg


http://i28.fastpic.ru/thumb/2012/0110/d3/a72ee44334d6459b5b3f2d144a1995d3.jpeg http://i28.fastpic.ru/thumb/2012/0110/9f/77a8198330354959e8dda42ae7298d9f.jpeg http://i28.fastpic.ru/thumb/2012/0110/a7/50eb92876c4b6029712a6a73fc8ecaa7.jpeg

http://i28.fastpic.ru/thumb/2012/0110/61/44e5b1faf7d0266e709d59cb76ad6961.jpeg http://i28.fastpic.ru/thumb/2012/0110/fe/a8c2e1a8f8ff89a3f1fb41e7c057e3fe.jpeg http://i28.fastpic.ru/thumb/2012/0110/0a/c148c3a7365cfa2b60a97a0778796b0a.jpeg

http://i28.fastpic.ru/thumb/2012/0110/90/673bc8e1c70e0190e28dff7d35822990.jpeg http://i28.fastpic.ru/thumb/2012/0110/c9/12f86c787235b52930f3f3f738cc5dc9.jpeg http://i28.fastpic.ru/thumb/2012/0110/1a/e17e04a8dc6f8be6de850e3b25580a1a.jpeg

http://i28.fastpic.ru/thumb/2012/0110/b0/1b479bb0e48f334e5b8fccc829b1f3b0.jpeg http://i28.fastpic.ru/thumb/2012/0110/33/7c056ef845c940b02ded1e352245a533.jpeg http://i28.fastpic.ru/thumb/2012/0110/16/c55bf7e5cfa3399575bfffc0e430c516.jpeg

http://i28.fastpic.ru/thumb/2012/0110/1d/2e3cfd176a2b9bc7e046edd59a19ef1d.jpeg http://i28.fastpic.ru/thumb/2012/0110/f8/e6669b797c4a25a1b182170d984033f8.jpeg http://i28.fastpic.ru/thumb/2012/0110/83/740868714760f17920236a1c974e7083.jpeg





Media info


Video
ID                               : 0
Format                           : MPEG-4 Visual
Format profile                   : Advanced Simple@L5
Format settings, BVOP            : 1
Format settings, QPel            : No
Format settings, GMC             : No warppoints
Format settings, Matrix          : Custom
Codec ID                         : XVID
Codec ID/Hint                    : XviD
Duration                         : 1h 40mn
Bit rate                         : 1 753 Kbps
Width                            : 560 pixels
Height                           : 416 pixels
Display aspect ratio             : 4:3
Frame rate                       : 25.000 fps
Color space                      : YUV
Chroma subsampling               : 4:2:0
Bit depth                        : 8 bits
Scan type                        : Progressive
Compression mode                 : Lossy
Bits/(Pixel*Frame)               : 0.301
Stream size                      : 1.23 GiB (90%)
Writing library                  : XviD 1.2.1 (UTC 2008-12-04)

Audio
ID                               : 1
Format                           : MPEG Audio
Format version                   : Version 1
Format profile                   : Layer 3
Mode                             : Joint stereo
Mode extension                   : MS Stereo
Codec ID                         : 55
Codec ID/Hint                    : MP3
Duration                         : 1h 40mn
Bit rate mode                    : Variable
Bit rate                         : 180 Kbps
Nominal bit rate                 : 192 Kbps
Channel(s)                       : 2 channels
Sampling rate                    : 48.0 KHz
Compression mode                 : Lossy
Stream size                      : 130 MiB (9%)
Alignment                        : Aligned on interleaves
Interleave, duration             : 24 ms (0.60 video frame)
Interleave, preload duration     : 476 ms
Writing library                  : LAME3.98r
Encoding settings                : -m j -V 4 -q 2 -lowpass 18.6 --abr 192
Language                         : Russian
Размер1.37 GB (1,468,006,400 байт)
Скачать 120 дней разврата - Le 120 giornate di sodoma

:: ОТЗЫВЫ


button_offline Отзыв от weker
avatar 699752

ооооооооооооо поглядим))))

button_offline Отзыв от trustik
avatar 721882

респект :-P :w00t: :w00t: :w00t:

button_offline Отзыв от serega451
avatar 809823

Б..я спасибо обожаю   Anita Blond, и Kelly Trump :-) :-) :-)

button_offline Отзыв от Mrlev2010
avatar 787837

Вот ее отодрать можно))

button_offline Отзыв от body
avatar 351646

посмотрим, такого кино с анитой еще не видел :weirdo:

РЕГИСТРАЦИЯ.

Смотрите бесплатное порно или эротику

footerLeft
Информация для правообладателей На ёгли вы скачаете порно, бесплатные фильмы, а также новинки кино. Все это бесплатно и без смс.