Cкачать бесплатно фильмы.
Поиск фильмов
Log Pass забыли?
  Бесплатные фильмы
Скачать 2 Lesbos 1 guy
Видео закрыто попробуйте наити похожие 2 Lesbos 1 guy
КатегорияЛюбители / Жёсткое
Похожие фильмы



Похожие онлайн фильмы
Постер фильма 2 Lesbos 1 guy
2 Lesbos 1 guy
Фото фильма 2 Lesbos 1 guy
2 Lesbos 1 guy

Обзор



2 страшные лезбиянки и 1 мужик
анал.орал.фистинг


      Format : AVI
      Format/Info : Audio Video Interleave
      File size : 490 MiB
      Duration : 24mn 12s
      Overall bit rate : 2 827 Kbps
    
   Video
      Format : MPEG-4 Visual
      Format profile : Streaming Video@L1
      Format settings, BVOP : Yes
      Format settings, QPel : No
      Format settings, GMC : No warppoints
      Format settings, Matrix : Default
      Codec ID : XVID
      Codec ID/Hint : XviD
      Duration : 24mn 12s
      Bit rate : 2 690 Kbps
      Width : 768 pixels
      Height : 576 pixels
      Display aspect ratio : 4/3
      Frame rate : 25.000 fps
      Resolution : 24 bits
      Colorimetry : 4:2:0
      Scan type : Progressive
      Bits/(Pixel*Frame) : 0.243
      Stream size : 466 MiB (95%)
      Writing library : XviD 1.2.0.dev47 (UTC 2006-11-01)
   Audio
      Format : MPEG Audio
      Format version : Version 1
      Format profile : Layer 3
      Codec ID : 55
      Codec ID/Hint : MP3
      Duration : 24mn 12s
      Bit rate mode : Constant
      Bit rate : 128 Kbps
      Minimum bit rate : 128 Kbps
      Channel(s) : 1 channel
      Sampling rate : 32.0 KHz
      Resolution : 16 bits
      Stream size : 22.2 MiB (5%)
      Alignment : Aligned on interleaves
      Interleave, duration : 40 ms (1.00 video frame)
      Interleave, preload duration : 504 ms
      Writing library : LAME3.97
  
Размер489.57 MB (513,355,776 байт)
Скачать 2 Lesbos 1 guy
Видео закрыто попробуйте наити похожие 2 Lesbos 1 guy

:: Отзывы



Отзывы отсутствуют.

 :: Отзывов нет
РЕГИСТРАЦИЯ.

Смотрите бесплатное порно или эротику

footerLeft
Информация для правообладателей На ёгли вы скачаете порно, бесплатные фильмы, а также новинки кино. Все это бесплатно и без смс.