Cкачать бесплатно фильмы.
Поиск фильмов
Log Pass забыли?
  Бесплатные фильмы
Скачать Anna Nova AnaL АННА НОВА АНАЛ
Видео закрыто попробуйте наити похожие Anna Nova AnaL АННА НОВА АНАЛ
КатегорияАнал / Жёсткое
Похожие фильмы



Похожие онлайн фильмы
Постер фильма Anna Nova AnaL АННА НОВА АНАЛ
Anna Nova AnaL           АННА НОВА   АНАЛ
Фото фильма Anna Nova AnaL АННА НОВА АНАЛ
Anna Nova AnaL           АННА НОВА   АНАЛ

Обзор



ПРОСТО ЖЕСТКИЙ АНАЛЬНЫЙ СЕКС! С СУПЕР ЗВЕЗДОЙ



Format                           : Flash Video
File size                        : 113 MiB
Duration                         : 33mn 24s
Overall bit rate                 : 475 Kbps
Tagged date                      : UTC 2009-05-21 23:05:25
Tagging application              : inlet media FLVTool2 v1.0.6 - http://www.inlet-media.de/flvtool2

Video
Format                           : VP6
Duration                         : 33mn 24s
Bit rate                         : 403 Kbps
Width                            : 528 pixels
Height                           : 400 pixels
Display aspect ratio             : 4:3
Frame rate                       : 25.000 fps
Bits/(Pixel*Frame)               : 0.076
Stream size                      : 96.7 MiB (85%)

Audio
Format                           : MPEG Audio
Format version                   : Version 2
Format profile                   : Layer 3
Format settings, Mode            : Joint stereo / MS Stereo
Duration                         : 33mn 24s
Bit rate mode                    : Constant
Bit rate                         : 64.0 Kbps
Channel(s)                       : 2 channels
Sampling rate                    : 22.05 KHz
Resolution                       : 16 bits
Stream size                      : 16.2 MiB (14%)
Writing library                  : LAME3.98.2





ПРИЯТНОГО ПРОСМОТРА ГОСПОДА!
Размер113.39 MB (118,896,329 байт)
Скачать Anna Nova AnaL АННА НОВА АНАЛ
Видео закрыто попробуйте наити похожие Anna Nova AnaL АННА НОВА АНАЛ

:: ОТЗЫВЫ


button_offline Отзыв от козлов62
avatar 696662

спасибо нажат!!! ;-) :-D

button_offline Отзыв от якут
avatar 327422

Благодарствую, прикольное видео !!!

button_offline Отзыв от proseka163
avatar 728221

Спасибо!Нормальное видио.

button_offline Отзыв от maxduke
avatar 354075

Спасибо!!! :w00t: :w00t: :w00t:

button_offline Отзыв от xumuk86
avatar 640841

Спасибо! :-P :-P :-P :-P :-P

button_offline Отзыв от SenseDeath
avatar 463176

Спасибо отлично!  :w00t: :w00t: :w00t:

РЕГИСТРАЦИЯ.

Смотрите бесплатное порно или эротику

footerLeft
Информация для правообладателей На ёгли вы скачаете порно, бесплатные фильмы, а также новинки кино. Все это бесплатно и без смс.