Cкачать бесплатно фильмы.
Поиск фильмов
Log Pass забыли?
  Бесплатные фильмы
Скачать Anna Nova Olivia O Lovely - Double Decker Sandwich Анна Нова Оливия О Лавли - Двойной сендвич Дрекера
КатегорияЗрелые / Анал / Латинос
Похожие фильмы



Похожие онлайн фильмы
Постер фильма Anna Nova Olivia O Lovely - Double Decker Sandwich Анна Нова Оливия О Лавли - Двойной сендвич Дрекера
Anna Nova Olivia O Lovely -   Double Decker Sandwich     Анна Нова Оливия О Лавли  -   Двойной сендвич Дрекера
Фото фильма Anna Nova Olivia O Lovely - Double Decker Sandwich Анна Нова Оливия О Лавли - Двойной сендвич Дрекера
Anna Nova Olivia O Lovely -   Double Decker Sandwich     Анна Нова Оливия О Лавли  -   Двойной сендвич Дрекера

Обзор



Парню Дрекеру невероятно повезло трахать двух королев анального секса!Дрекер не разочаровал двух зрелых тетушек!
Короче смотрите!!!





File size                        : 170 MiB
Duration                         : 23mn 55s
Overall bit rate mode            : Variable
Overall bit rate                 : 993 Kbps
Maximum Overall bit rate         : 1 425 Kbps
Movie name                       : Double Decker Sandwich
Encoded date                     : UTC 2004-09-08 09:03:27.890

Video
ID                               : 2
Format                           : WMV2
Codec ID                         : WMV2
Codec ID/Info                    : Windows Media Video 8
Duration                         : 23mn 54s
Bit rate mode                    : Variable
Bit rate                         : 757 Kbps
Width                            : 480 pixels
Height                           : 352 pixels
Display aspect ratio             : 4:3
Frame rate                       : 23.976 fps
Resolution                       : 24 bits
Bits/(Pixel*Frame)               : 0.187
Stream size                      : 129 MiB (76%)
Language                         : English (US)

Audio
ID                               : 1
Format                           : WMA
Format version                   : Version 2
Codec ID                         : 161
Codec ID/Info                    : Windows Media Audio
Duration                         : 23mn 55s
Bit rate mode                    : Constant
Bit rate                         : 64.0 Kbps
Channel(s)                       : 2 channels
Sampling rate                    : 44.1 KHz
Resolution                       : 16 bits
Stream size                      : 11.0 MiB (6%)
Language                         : English (US)







ПРИЯТНОГО ПРОСМОТРА ГОСПОДА!




ВАШИ НАЖАТЫЕ СПАСИБО ПРОВОЦИРУЮТ АВТОРА К НОВЫМ РАЗДАЧАМ ГОСПОДА!!!
Размер170.02 MB (178,283,274 байт)
Скачать Anna Nova Olivia O Lovely - Double Decker Sandwich Анна Нова Оливия О Лавли - Двойной сендвич Дрекера

:: ОТЗЫВЫ


button_offline Отзыв от Filin2
avatar 495823

милы дамы, правда подуставшие   8-)

button_offline Отзыв от Zonder2003
avatar 384505

Канюшня  :-D :-D :-D

button_offline Отзыв от козлов62
avatar 696662

спасибо нажал!!! :-D :-D

button_offline Отзыв от MOHCTP202
avatar 277681

Спасибо !!!!!!!!!!!!!!!!

button_offline Отзыв от tambiev
avatar 475152

Спасибо за ролик :-D

button_offline Отзыв от waw50
avatar 748346

Спасибо!Нормальное видио. :-D :-D :-D :-D :-D :-D :-D

button_offline Отзыв от якут
avatar 327422

Благодарствую, прикольное видео !!!

РЕГИСТРАЦИЯ.

Смотрите бесплатное порно или эротику

footerLeft
Информация для правообладателей На ёгли вы скачаете порно, бесплатные фильмы, а также новинки кино. Все это бесплатно и без смс.