Cкачать бесплатно фильмы.
Поиск фильмов
Log Pass забыли?
  Бесплатные фильмы
Скачать BTRABrits Bangbros Большие груди прелесный зад
КатегорияАнал / Молодые / Груди
Похожие фильмы



Похожие онлайн фильмы
Постер фильма BTRABrits Bangbros Большие груди прелесный зад
BTRABrits   Bangbros                             Большие груди прелесный зад
Фото фильма BTRABrits Bangbros Большие груди прелесный зад
BTRABrits   Bangbros                             Большие груди прелесный зад

Обзор



ГОВОРИТЬ НЕЧЕГО НАДО СМОТРЕТЬ!




Format                           : Windows Media
File size                        : 379 MiB
Duration                         : 50mn 23s
Overall bit rate mode            : Constant
Overall bit rate                 : 1 053 Kbps
Maximum Overall bit rate         : 1 061 Kbps
Encoded date                     : UTC 2007-08-20 01:12:21.484
SfOriginalFPS                    : 299700

Video
ID                               : 2
Format                           : VC-1
Format profile                   : MP@ML
Codec ID                         : WMV3
Codec ID/Info                    : Windows Media Video 9
Codec ID/Hint                    : WMV3
Description of the codec         : Windows Media Video 9 - Professional
Duration                         : 50mn 20s
Bit rate mode                    : Constant
Bit rate                         : 1 017 Kbps
Width                            : 640 pixels
Height                           : 480 pixels
Display aspect ratio             : 4:3
Frame rate                       : 29.970 fps
Resolution                       : 24 bits
Scan type                        : Progressive
Bits/(Pixel*Frame)               : 0.110
Stream size                      : 366 MiB (96%)
Language                         : English (US)

Audio
ID                               : 1
Format                           : WMA
Format version                   : Version 2
Codec ID                         : 161
Codec ID/Info                    : Windows Media Audio
Description of the codec         : Windows Media Audio 9.1 -  32 kbps, 44 kHz, stereo (A/V) 1-pass CBR
Duration                         : 50mn 23s
Bit rate mode                    : Constant
Bit rate                         : 32.0 Kbps
Channel(s)                       : 2 channels
Sampling rate                    : 44.1 KHz
Resolution                       : 16 bits
Stream size                      : 11.5 MiB (3%)
Language                         : English (US)


ПРИЯТНОГО ПРОСМОТРА ГОСПОДА!




НАЖАТИЕ КНОПКИ СПАСИБО РАСПОЛАГАЕТ АВТОРА  К НОВЫМ РАЗДАЧАМ ПОМНИТЕ!
Размер379.39 MB (397,823,584 байт)
Скачать BTRABrits Bangbros Большие груди прелесный зад

:: ОТЗЫВЫ


button_offline Отзыв от Lavsvip
avatar 608598

спасибо..............................

button_offline Отзыв от stary her
avatar 720933

СПАСИБО!!!!   :w00t: :w00t: :w00t: :w00t:

button_offline Отзыв от якут
avatar 327422

Благодарствую, прикольное видео !!!

button_offline Отзыв от proseka163
avatar 728221

Спасибо!Нормальное видио.

button_offline Отзыв от maxduke
avatar 354075

Спасибо!!! :w00t: :w00t: :w00t:

button_offline Отзыв от Voine
avatar 706904

Спасибо. :-D :-D :-D

button_offline Отзыв от piranie25
avatar 461809

Спасибо!!!  :w00t: :w00t: :w00t:

button_offline Отзыв от Nachar
avatar 325669

Хороший фильмец, спасибо!!!

button_offline Отзыв от MOHCTP202
avatar 277681

Спасибо большое!!!!!!

button_offline Отзыв от xumuk86
avatar 640841

спасиб ;-) ;-) ;-) ;-) ;-)

button_offline Отзыв от козлов62
avatar 696662

спасибо нажал!!! ;-) :-D

button_offline Отзыв от SenseDeath
avatar 463176

Спасибо отлично!  :w00t: :w00t: :w00t:

РЕГИСТРАЦИЯ.

Смотрите бесплатное порно или эротику

footerLeft
Информация для правообладателей На ёгли вы скачаете порно, бесплатные фильмы, а также новинки кино. Все это бесплатно и без смс.