Cкачать бесплатно фильмы.
Поиск фильмов
Log Pass забыли?
  Бесплатные фильмы
Скачать Boobs-A-Poppin Сиськи
Видео закрыто попробуйте наити похожие Boobs-A-Poppin Сиськи
КатегорияАнал / Груди
Похожие фильмы



Похожие онлайн фильмы
Постер фильма Boobs-A-Poppin Сиськи
Boobs-A-Poppin                     Сиськи
Фото фильма Boobs-A-Poppin Сиськи
Boobs-A-Poppin                     Сиськи

Обзор



Два Робин Гуда трахают неплохую телку с нормальными естественными сиськами на открытом воздухе!







Format                           : Windows Media
File size                          : 110 MiB
Duration                         : 12mn 3s
Overall bit rate mode        : Variable
Overall bit rate                 : 1 273 Kbps
Maximum Overall bit rate         : 2 111 Kbps
Movie name                       : BOOBS A POPPIN
Encoded date                     : UTC 2008-02-13 20:29:57.979

Video
ID                                   : 2
Format                             : WMV2
Codec ID                         : WMV2
Codec ID/Info                    : Windows Media Video 8
Duration                           : 12mn 3s
Bit rate mode                    : Variable
Bit rate                             : 887 Kbps
Width                               : 480 pixels
Height                              : 352 pixels
Display aspect ratio             : 4:3
Frame rate                         : 29.970 fps
Resolution                            : 24 bits
Bits/(Pixel*Frame)               : 0.175
Stream size                      : 76.4 MiB (70%)
Language                         : English (US)

Audio
ID                                  : 1
Format                           : WMA
Format version                   : Version 2
Codec ID                         : 161
Codec ID/Info                    : Windows Media Audio
Duration                          : 12mn 3s
Bit rate mode                      : Constant
Bit rate                            : 64.0 Kbps
Channel(s)                       : 2 channels
Sampling rate                    : 44.1 KHz
Resolution                        : 16 bits
Stream size                      : 5.53 MiB (5%)
Language                         : English (US)

Размер109.86 MB (115,193,550 байт)
Скачать Boobs-A-Poppin Сиськи
Видео закрыто попробуйте наити похожие Boobs-A-Poppin Сиськи

:: ОТЗЫВЫ


button_offline Отзыв от Voine
avatar 706904

Спасибо. :-) :-) :-)

button_offline Отзыв от Sango Human
avatar 739835

ЖМЕМ СПАСИБО ГОСПОДА!!! :-) :-) :-)

button_offline Отзыв от timur5555
avatar 241748

Старовата мать...Значит нужно уважать... :-)

button_offline Отзыв от козлов62
avatar 696662

спасибо нажат!!! ;-) :-D

button_offline Отзыв от xumuk86
avatar 640841

спасиб :-P :-P :-P :-P :-P

button_offline Отзыв от konselieri
avatar 434256

интересно :!: :!: 8-) :!: :!: :!:

button_offline Отзыв от Nachar
avatar 325669

Благодарю!!! Не плохой фильмец!! СПС!

button_offline Отзыв от SenseDeath
avatar 463176

Спасибо отлично!  :w00t: :w00t: :w00t:

РЕГИСТРАЦИЯ.

Смотрите бесплатное порно или эротику

footerLeft
Информация для правообладателей На ёгли вы скачаете порно, бесплатные фильмы, а также новинки кино. Все это бесплатно и без смс.