Cкачать бесплатно фильмы.
Поиск фильмов
Log Pass забыли?
  Бесплатные фильмы
Скачать Boobzilla Большие сиськи и черный!
КатегорияМежрассовое / Груди
Похожие фильмы



Похожие онлайн фильмы
Постер фильма Boobzilla Большие сиськи и черный!
Boobzilla                                         Большие сиськи и  черный!
Фото фильма Boobzilla Большие сиськи и черный!
Boobzilla                                         Большие сиськи и  черный!

Обзор



Брюнетку с большими сиськами  трахает черный !!!




Format                           : Windows Media
File size                          : 192 MiB
Duration                         : 33mn 18s
Overall bit rate mode       : Variable
Overall bit rate                 : 807 Kbps
Maximum Overall bit rate    : 1 437 Kbps
Movie name                       : BOOBZILLA
Encoded date                     : UTC 2007-12-14 00:10:23.627

Video
ID                                : 2
Format                         : WMV2
Codec ID                      : WMV2
Codec ID/Info               : Windows Media Video 8
Duration                       : 33mn 16s
Bit rate mode                : Variable
Bit rate                         : 587 Kbps
Width                            : 480 pixels
Height                           : 352 pixels
Display aspect ratio        : 4:3
Frame rate                     : 29.970 fps
Resolution                       : 24 bits
Bits/(Pixel*Frame)               : 0.116
Stream size                      : 140 MiB (73%)
Language                         : English (US)

Audio
ID                                    : 1
Format                             : WMA
Format version                   : Version 2
Codec ID                          : 161
Codec ID/Info                   : Windows Media Audio
Duration                           : 33mn 18s
Bit rate mode                    : Constant
Bit rate                             : 64.0 Kbps
Channel(s)                        : 2 channels
Sampling rate                    : 44.1 KHz
Resolution                         : 16 bits
Stream size                        : 15.3 MiB (8%)
Language                          : English (US)






ПРИЯТНОГО ПРОСМОТРА ГОСПОДА!!!
Размер192.28 MB (201,617,190 байт)
Скачать Boobzilla Большие сиськи и черный!

:: ОТЗЫВЫ


button_offline Отзыв от MOHCTP202
avatar 277681

Спасибо !!!!!!!!!!!!!!!!!!!

button_offline Отзыв от Nachar
avatar 325669

Благодарю!!! Не плохой фильмец!! СПС!

button_offline Отзыв от козлов62
avatar 696662

спасибо нажат!!! ;-) :-D

button_offline Отзыв от якут
avatar 327422

Хорошая киношка !!!!!!!!!!!!!!!!!!!!!!!!!!!!!

button_offline Отзыв от SenseDeath
avatar 463176

Спасибо отлично!  :w00t: :w00t: :w00t:

РЕГИСТРАЦИЯ.

Смотрите бесплатное порно или эротику

footerLeft
Информация для правообладателей На ёгли вы скачаете порно, бесплатные фильмы, а также новинки кино. Все это бесплатно и без смс.