Cкачать бесплатно фильмы.
Поиск фильмов
Log Pass забыли?
  Бесплатные фильмы
Скачать Boy Fucks Girl Парень трахнул телку
КатегорияАнал
Похожие фильмы



Похожие онлайн фильмы
Постер фильма Boy Fucks Girl Парень трахнул телку
Boy Fucks Girl                          Парень трахнул телку
Фото фильма Boy Fucks Girl Парень трахнул телку
Boy Fucks Girl                          Парень трахнул телку

Обзор



ПРИШЛА КРАСОТКА С ТРЕПЕТНЫМ ЗАДКОМ,
И ПОЛУЧИЛА СВОЮ ДОЗУ СПЕРМЫ,
И ПАРЕНЕК ПОПАРИЛ, СВОЙ НЕ СЛАБЫЙ КОЛ!
ОТТРАХАВ СТРАСТНО МОЛОДУЮ СТЕРВУ!!




Format                           : Windows Media
File size                        : 177 MiB
Duration                         : 29mn 41s
Overall bit rate mode            : Variable
Overall bit rate                 : 833 Kbps
Maximum Overall bit rate         : 1 658 Kbps
Movie name                       : BOY FUCKS GIRL
Encoded date                     : UTC 2008-05-02 23:15:52.480

Video
ID                               : 2
Format                           : WMV2
Codec ID                         : WMV2
Codec ID/Info                    : Windows Media Video 8
Duration                         : 29mn 39s
Bit rate mode                    : Variable
Bit rate                         : 839 Kbps
Width                            : 480 pixels
Height                           : 352 pixels
Display aspect ratio             : 4:3
Frame rate                       : 29.970 fps
Resolution                       : 24 bits
Bits/(Pixel*Frame)               : 0.166
Stream size                      : 178 MiB
Language                         : English (US)

Audio
ID                               : 1
Format                           : WMA
Format version                   : Version 2
Codec ID                         : 161
Codec ID/Info                    : Windows Media Audio
Duration                         : 29mn 41s
Bit rate mode                    : Constant
Bit rate                         : 64.0 Kbps
Channel(s)                       : 2 channels
Sampling rate                    : 44.1 KHz
Resolution                       : 16 bits
Stream size                      : 13.6 MiB (8%)
Language                         : English (US)







ПРИЯТНОГО ПРОСМОТРА ГОСПОДА!!!
Размер176.83 MB (185,423,898 байт)
Скачать Boy Fucks Girl Парень трахнул телку

:: ОТЗЫВЫ


button_offline Отзыв от Sango Human
avatar 739835

ЖМЕМ СПАСИБО ГОСПОДА!!!
И РАЗДАЕМ!
:weirdo: :weirdo: :weirdo: :weirdo:

button_offline Отзыв от greenman
avatar 389487

скорости бы по больше:(((((( :-(

button_offline Отзыв от Sango Human
avatar 739835

ОДИН В РАЗДАЧЕ Я СТОЮ :-( :-( :-(

button_offline Отзыв от Sango Human
avatar 739835

БУДУТ ДВА ТРИ И БУДЕТ СКОРОСТЬ!

button_offline Отзыв от Nachar
avatar 325669

Благодарю!!! Не плохой фильмец!! СПС!

button_offline Отзыв от MOHCTP202
avatar 277681

Спасибо !!!!!!!!!!!!!!!

button_offline Отзыв от Lavsvip
avatar 608598

спасибо.......................

button_offline Отзыв от maxtersky
avatar 732276

Спасибо!!!!!!!!!!!!!!!!!!!!

button_offline Отзыв от козлов62
avatar 696662

спасибо нажал!!! ;-) :-D

button_offline Отзыв от p55554
avatar 734570

супер секс-спасибо !!! :w00t: :w00t:

button_offline Отзыв от якут
avatar 327422

Благодарствую, прикольное видео !!!

button_offline Отзыв от sexterror222
avatar 738894

спасибо нажал!!!  :w00t: :w00t: :w00t:

button_offline Отзыв от proseka163
avatar 728221

Спасибо!Нормальное видио.

button_offline Отзыв от maxduke
avatar 354075

Спасибо!!! :w00t: :w00t: :w00t:

button_offline Отзыв от xumuk86
avatar 640841

Спасибо! :-D :-D :-D :-D :-P

button_offline Отзыв от SenseDeath
avatar 463176

Спасибо отлично!  :w00t: :w00t: :w00t:

РЕГИСТРАЦИЯ.

Смотрите бесплатное порно или эротику

footerLeft
Информация для правообладателей На ёгли вы скачаете порно, бесплатные фильмы, а также новинки кино. Все это бесплатно и без смс.