Cкачать бесплатно фильмы.
Поиск фильмов
Log Pass забыли?
  Бесплатные фильмы
Скачать Bree Olson (It s Huge 6)
Видео закрыто попробуйте наити похожие Bree Olson (It s Huge 6)
КатегорияАнал
Похожие фильмы



Похожие онлайн фильмы
Постер фильма Bree Olson (It s Huge 6)
Bree Olson (It s Huge 6)

Обзор





Название: Bree Olson (It's Huge 6)
Год выхода: 2007
Раздел: Anal
Время: 23 мин
Описание:
Scene from "It's Huge 6".

Video:
Codec ID: XVID
Codec ID/Hint: XviD
Duration: 23mn 19s
Bit rate: 1 066 Kbps
Width: 512 pixels
Height: 288 pixels
Display aspect ratio: 16:9
Frame rate : 29.970 fps
Resolution: 24 bits
Colorimetry: 4:2:0
Scan type: Progressive
Bits/(Pixel*Frame): 0.241
Stream size: 178 MiB (90%)
Writing library: XviD 1.0.3 (UTC 2004-12-20)

Audio:
Format: MPEG Audio
Format version: Version 1
Format profile: Layer 3
Codec ID: 55
Codec ID/Hint : MP3
Duration : 23mn 19s
Bit rate mode: Variable
Bit rate: 105 Kbps
Channel(s): 2 channels
Sampling rate: 48.0 KHz
Resolution: 16 bits
Stream size: 17.9 MiB (9%)
Alignment: Aligned on interleaves
Interleave, duration: 24 ms (0.72 video frame)
Interleave, preload duration: 401 ms


Качество: DVDRip
Формат:  AVI
Размер: 197.94 Мб


Размер197.94 MB (207,558,656 байт)
Скачать Bree Olson (It s Huge 6)
Видео закрыто попробуйте наити похожие Bree Olson (It s Huge 6)

:: ОТЗЫВЫ


button_offline Отзыв от pavel9911
avatar 695027

Спасибо!!!

button_offline Отзыв от Игорь240286
avatar 652522

;-)Спасибо!!! ;-)

button_offline Отзыв от Olazer
avatar 694111

Спасибо!!!

button_offline Отзыв от serccc
avatar 604370

Спасибо!!!  :-D

button_offline Отзыв от OskarPremer
avatar 704364

Спасибо  :w00t:

button_offline Отзыв от dimazzanov
avatar 710840

спасибо!!!

button_offline Отзыв от Saruman
avatar 30358

божественно!!

button_offline Отзыв от Volhv0911
avatar 743890

Хороший фильм, спасибо!!!

РЕГИСТРАЦИЯ.

Смотрите бесплатное порно или эротику

footerLeft
Информация для правообладателей На ёгли вы скачаете порно, бесплатные фильмы, а также новинки кино. Все это бесплатно и без смс.