Cкачать бесплатно фильмы.
Поиск фильмов
Log Pass забыли?
  Бесплатные фильмы
Скачать Brianna Love - Ass Bandits Бриана Лав - Жопастые бандитки
КатегорияАнал / Молодые
Похожие фильмы



Похожие онлайн фильмы
Постер фильма Brianna Love - Ass Bandits Бриана Лав - Жопастые бандитки
Brianna Love - Ass Bandits                             Бриана Лав - Жопастые бандитки
Фото фильма Brianna Love - Ass Bandits Бриана Лав - Жопастые бандитки
Brianna Love - Ass Bandits                             Бриана Лав - Жопастые бандитки

Обзор



Жопастую  телку усердно трахнул не слабый мужик!Наслаждайтесь господа!



File size                        : 171 MiB
Duration                         : 26mn 56s
Overall bit rate                 : 887 Kbps
Writing application              : VirtualDubMod 1.5.10.1 (build 2439/release)
Writing library                  : VirtualDub build 24469/release

Video
ID                               : 0
Format                           : MPEG-4 Visual
Format profile                   : AdvancedSimple@L5
Format settings, BVOP            : Yes
Format settings, QPel            : No
Format settings, GMC             : No warppoints
Format settings, Matrix          : Default (H.263)
Muxing mode                      : Packed bitstream
Codec ID                         : XVID
Codec ID/Hint                    : XviD
Duration                         : 26mn 56s
Bit rate                         : 859 Kbps
Width                            : 512 pixels
Height                           : 288 pixels
Display aspect ratio             : 1.616
Frame rate                       : 29.970 fps
Resolution                       : 24 bits
Colorimetry                      : 4:2:0
Scan type                        : Progressive
Bits/(Pixel*Frame)               : 0.194
Stream size                      : 166 MiB (97%)
Writing library                  : XviD 1.0.1 (UTC 2004-06-05)

Audio
ID                               : 1
Format                           : MPEG Audio
Format version                   : Version 2
Format profile                   : Layer 3
Codec ID                         : 55
Codec ID/Hint                    : MP3
Duration                         : 26mn 56s
Bit rate mode                    : Constant
Bit rate                         : 16.0 Kbps
Channel(s)                       : 1 channel
Sampling rate                    : 16.0 KHz
Resolution                       : 16 bits
Video delay                      : 9ms
Stream size                      : 3.08 MiB (2%)
Alignment                        : Split accross interleaves
Interleave, duration             : 33 ms (1.00 video frame)
Interleave, preload duration     : 500 ms









ПРИЯНОГО ПРОСМОТРА ГОСПОДА!






Размер171.00 MB (179,304,478 байт)
Скачать Brianna Love - Ass Bandits Бриана Лав - Жопастые бандитки

:: ОТЗЫВЫ


button_offline Отзыв от управдом
avatar 745193

шикарная задница
:w00t:

button_offline Отзыв от sultanxan
avatar 751185

Спасибо опературу!!!!

button_offline Отзыв от козлов62
avatar 696662

попка супер!!! :w00t: :-D

button_offline Отзыв от proseka163
avatar 728221

Спасибо! Нормальное видио.

button_offline Отзыв от MOHCTP202
avatar 277681

Спасибо !!!!!!!!!!!!

button_offline Отзыв от sexterror222
avatar 738894

ОТЛИЧНЫЙ РОЛИК!!  8-) 8-) 8-) 8-)

button_offline Отзыв от якут
avatar 327422

Благодарствую, прикольное видео !!!

button_offline Отзыв от dredmd
avatar 335320

зуппа  8-) 8-) 8-) :greedy: :greedy: :greedy: :greedy:

РЕГИСТРАЦИЯ.

Смотрите бесплатное порно или эротику

footerLeft
Информация для правообладателей На ёгли вы скачаете порно, бесплатные фильмы, а также новинки кино. Все это бесплатно и без смс.