Cкачать бесплатно фильмы.
Поиск фильмов
Log Pass забыли?
  Бесплатные фильмы
Скачать Busty Pom Pom Girls Большие сиськи секс в раздевалке
КатегорияЗрелые / Груди
Похожие фильмы



Похожие онлайн фильмы
Постер фильма Busty Pom Pom Girls Большие сиськи секс в раздевалке
Busty Pom Pom Girls                               Большие сиськи секс в раздевалке
Фото фильма Busty Pom Pom Girls Большие сиськи секс в раздевалке
Busty Pom Pom Girls                               Большие сиськи секс в раздевалке

Обзор



ПАРЕНЬ СЛАДКО ПОИМЕЛ ДЕВУШКУ ИЗ ГРУППЫ ПОДДЕРЖКИ!





File size                        : 117 MiB
Duration                         : 19mn 35s
Overall bit rate mode            : Variable
Overall bit rate                 : 838 Kbps
Maximum Overall bit rate         : 3 441 Kbps
Movie name                       : Busty Pom Pom Girls
Encoded date                     : UTC 2006-05-12 23:42:31.507

Video
ID                               : 2
Format                           : WMV2
Codec ID                         : WMV2
Codec ID/Info                    : Windows Media Video 8
Duration                         : 19mn 34s
Bit rate mode                    : Variable
Bit rate                         : 1 190 Kbps
Width                            : 480 pixels
Height                           : 352 pixels
Display aspect ratio             : 4:3
Frame rate                       : 23.976 fps
Resolution                       : 24 bits
Bits/(Pixel*Frame)               : 0.294
Stream size                      : 167 MiB
Language                         : English (US)

Audio
ID                               : 1
Format                           : WMA
Format version                   : Version 2
Codec ID                         : 161
Codec ID/Info                    : Windows Media Audio
Duration                         : 19mn 35s
Bit rate mode                    : Constant
Bit rate                         : 64.0 Kbps
Channel(s)                       : 2 channels
Sampling rate                    : 44.1 KHz
Resolution                       : 16 bits
Stream size                      : 8.97 MiB (8%)
Language                         : English (US)






ПРИЯТНОГО ПРОСМОТРА ГОСПОДА!




УВАЖАЕМЫЕ ДАМЫ И ГОСПОДА, НАЖАТИЕ КНОПКИ СПАСИБО РАСПОЛАГАЕТ К ДАЛЬНЕЙШИМ РАЗДАЧАМ!!!
Размер117.47 MB (123,177,708 байт)
Скачать Busty Pom Pom Girls Большие сиськи секс в раздевалке

:: ОТЗЫВЫ


button_offline Отзыв от p55554
avatar 734570

спасибо-супер секс !!!!!! :w00t: :w00t:

button_offline Отзыв от Вольман
avatar 715010

Прикольное видео!!! :w00t:

button_offline Отзыв от dec99
avatar 243388

СПС НАЖАТ :-D :-D :-D

button_offline Отзыв от xumuk86
avatar 640841

спасибо :-P ;-) ;-) ;-)

button_offline Отзыв от max222
avatar 749450

спасибо  :-D :-D :-D :-D :-D :-D

button_offline Отзыв от MOHCTP202
avatar 277681

Спасибо !!!!!!!!!!!!!!

button_offline Отзыв от Nachar
avatar 325669

Спасибо! Супер !!! И Спасибо не забыл

button_offline Отзыв от козлов62
avatar 696662

кнопкунажал!!! ;-) :-P :-P

button_offline Отзыв от maxtersky
avatar 732276

Спасибо!!!!!!!!!!!!!!!!

button_offline Отзыв от Denis083
avatar 693229

отличное видео
:-) :-) :-)

button_offline Отзыв от waw50
avatar 748346

Маша, размечтавшись, встанет раком,
Маша очень любит эту позу,
Ведь она ебется, как собака -
Вся в желаньи прыгнуть на занозу.

Значит, наша Маша – балерина,
Много у нее позиций всяких…
Как люблю смотреть я на картину -
Маша без трусов и в позе рака!

Маша – наша милая девчонка,
Маша – хулиганка, забияка;
Выучила Машенька с пеленок:
Есть такая поза – поза раком!

Машу уважают, Машу ценят -
У нее в фигурочка без брака…
Приласкают нежно и разденут,
И поставят сразу в позу рака!

Маша ходит в золоте, в брильянтах,
Думает о будущем без страха -
Для нее надежней всех гарантий
Поза счастья – это поза рака!

button_offline Отзыв от uiras
avatar 744881

с силиконом конечно переборщила. а так молодец :sly: :-D :-D

РЕГИСТРАЦИЯ.

Смотрите бесплатное порно или эротику

footerLeft
Информация для правообладателей На ёгли вы скачаете порно, бесплатные фильмы, а также новинки кино. Все это бесплатно и без смс.