Cкачать бесплатно фильмы.
Поиск фильмов
Log Pass забыли?
  Бесплатные фильмы
Скачать Butt bangin Baby Dolls Малышка и член
КатегорияАнал
Похожие фильмы



Похожие онлайн фильмы
Постер фильма Butt bangin Baby Dolls Малышка и член
Butt bangin Baby Dolls                             Малышка и член
Фото фильма Butt bangin Baby Dolls Малышка и член
Butt bangin Baby Dolls                             Малышка и член

Обзор



ХОРОШАЯ ДЕВУШКА ХОРОШИЙ АНАЛЬНЫЙ СЕКС !ПРЕКРАСНОЕ ТЕЛО ЕСТЕСТВЕННАЯ ГРУДЬ!




File size                        : 122 MiB
Duration                         : 23mn 14s
Overall bit rate mode            : Variable
Overall bit rate                 : 735 Kbps
Maximum Overall bit rate         : 1 446 Kbps
Movie name                       : BUTT BANGIN BD 2
Encoded date                     : UTC 2007-11-26 20:19:04.570

Video
ID                               : 2
Format                           : WMV2
Codec ID                         : WMV2
Codec ID/Info                    : Windows Media Video 8
Duration                         : 23mn 13s
Bit rate mode                    : Variable
Bit rate                         : 802 Kbps
Width                            : 480 pixels
Height                           : 352 pixels
Display aspect ratio             : 4:3
Frame rate                       : 29.970 fps
Resolution                       : 24 bits
Bits/(Pixel*Frame)               : 0.158
Stream size                      : 133 MiB
Language                         : English (US)

Audio
ID                               : 1
Format                           : WMA
Format version                   : Version 2
Codec ID                         : 161
Codec ID/Info                    : Windows Media Audio
Duration                         : 23mn 14s
Bit rate mode                    : Constant
Bit rate                         : 64.0 Kbps
Channel(s)                       : 2 channels
Sampling rate                    : 44.1 KHz
Resolution                       : 16 bits
Stream size                      : 10.6 MiB (9%)
Language                         : English (US)











ПРИЯТНОГО ПРОСМОТРА ГОСПОДА!



Размер122.25 MB (128,187,016 байт)
Скачать Butt bangin Baby Dolls Малышка и член

:: ОТЗЫВЫ


button_offline Отзыв от p55554
avatar 734570

спасибо-супер секс !!! :w00t:

button_offline Отзыв от dec99
avatar 243388

СПС НАЖАТ :-D :-D :-D

button_offline Отзыв от ГОРНЕ
avatar 737407

спасибо!!!!!!!!!!!!!!

button_offline Отзыв от xumuk86
avatar 640841

спасибо :-D :-D :-D :-D

button_offline Отзыв от isharik
avatar 718656

супер :w00t: :w00t: :w00t: :w00t: :w00t: :w00t: :w00t: :w00t: :w00t: :w00t:

button_offline Отзыв от isharik
avatar 718656

супер :w00t: :w00t: :w00t: :w00t: :w00t: :w00t: :w00t: :w00t: :w00t: :w00t:

button_offline Отзыв от arat
avatar 638610

класс!!!!!!!!!! спасибо!!!!!!!!!!!!!

button_offline Отзыв от Nachar
avatar 325669

Спасибо! Супер !!! И Спасибо не забыл

button_offline Отзыв от SenseDeath
avatar 463176

Спасибо отлично!  :w00t: :w00t: :w00t:

button_offline Отзыв от козлов62
avatar 696662

спасибо нажал!!! ;-) ;-)

button_offline Отзыв от xzombi
avatar 472841

СПАСИБО :!: :greedy: :greedy: :greedy: ;-) ;-) ;-)

button_offline Отзыв от якут
avatar 327422

Хорошая киношка !!!!!!!!!!!!!!!!!!!!!!!!!!!!!

РЕГИСТРАЦИЯ.

Смотрите бесплатное порно или эротику

footerLeft
Информация для правообладателей На ёгли вы скачаете порно, бесплатные фильмы, а также новинки кино. Все это бесплатно и без смс.