Cкачать бесплатно фильмы.
Поиск фильмов
Log Pass забыли?
  Бесплатные фильмы
Скачать Butt fucked By A Black Man Черный член трахнул малышку!
КатегорияАнал / Жёсткое / Межрассовое
Похожие фильмы



Похожие онлайн фильмы
Постер фильма Butt fucked By A Black Man Черный член трахнул малышку!
Butt fucked By A Black Man                        Черный  член трахнул малышку!
Фото фильма Butt fucked By A Black Man Черный член трахнул малышку!
Butt fucked By A Black Man                        Черный  член трахнул малышку!

Обзор



ЧЕРНЫЙ ПАРЕНЬ ЛЮБИТЕЛЬ ТРАХАТЬ В АНАЛЬНОЕ ОТВЕРСТИЕ ЖЕСТКО И НАСТОЙЧИВО ИМЕЕТ СЕКСАПИЛЬНУЮ БЛОНДИНКУ!





File size                        : 183 MiB
Duration                         : 35mn 9s
Overall bit rate mode            : Variable
Overall bit rate                 : 726 Kbps
Maximum Overall bit rate         : 1 452 Kbps
Movie name                       : Buttfucked By A Black Man
Encoded date                     : UTC 2007-11-30 19:13:55.000

Video
ID                               : 2
Format                           : WMV2
Codec ID                         : WMV2
Codec ID/Info                    : Windows Media Video 8
Duration                         : 35mn 7s
Bit rate mode                    : Variable
Bit rate                         : 607 Kbps
Width                            : 480 pixels
Height                           : 352 pixels
Display aspect ratio             : 4:3
Frame rate                       : 23.976 fps
Resolution                       : 24 bits
Bits/(Pixel*Frame)               : 0.150
Stream size                      : 152 MiB (83%)
Language                         : English (US)

Audio
ID                               : 1
Format                           : WMA
Format version                   : Version 2
Codec ID                         : 161
Codec ID/Info                    : Windows Media Audio
Duration                         : 35mn 9s
Bit rate mode                    : Constant
Bit rate                         : 64.0 Kbps
Channel(s)                       : 2 channels
Sampling rate                    : 44.1 KHz
Resolution                       : 16 bits
Stream size                      : 16.1 MiB (9%)
Language                         : English (US)









ПРИЯТНОГО ПРОСМОТРА ГОСПОДА!
Размер182.68 MB (191,551,324 байт)
Скачать Butt fucked By A Black Man Черный член трахнул малышку!

:: ОТЗЫВЫ


button_offline Отзыв от p55554
avatar 734570

супер секс-спасибо !!!! ;-)

button_offline Отзыв от ГОРНЕ
avatar 737407

спасибо!!!!!!!!!!!!!!!!

button_offline Отзыв от xumuk86
avatar 640841

спасибо :-P :-P :-P :-P :-P :-P

button_offline Отзыв от isharik
avatar 718656

спасибо за хорошее видео! просто класс! мне очень понравилось! :-P :-P :-P :-P :-P :-P :-P

button_offline Отзыв от isharik
avatar 718656

спасибо за хорошее видео! просто класс! мне очень понравилось! :-P :-P :-P :-P :-P :-P :-P

button_offline Отзыв от козлов62
avatar 696662

спасибо нажал!!! ;-) :w00t:

button_offline Отзыв от star69
avatar 411439

Спасибо :-) :-) :-) :-) :-)

button_offline Отзыв от якут
avatar 327422

Хорошая киношка !!!!!!!!!!!!!!!!!!!!!!!!!!!!!

РЕГИСТРАЦИЯ.

Смотрите бесплатное порно или эротику

footerLeft
Информация для правообладателей На ёгли вы скачаете порно, бесплатные фильмы, а также новинки кино. Все это бесплатно и без смс.