Cкачать бесплатно фильмы.
Поиск фильмов
Log Pass забыли?
  Бесплатные фильмы
Скачать ClaudiaMarie-BigTittySouthernMILF-Cummin Клавдия Мари Большие сиськи зрелой мамочки
КатегорияЗрелые / Груди
Похожие фильмы



Похожие онлайн фильмы
Постер фильма ClaudiaMarie-BigTittySouthernMILF-Cummin Клавдия Мари Большие сиськи зрелой мамочки
ClaudiaMarie-BigTittySouthernMILF-Cummin             Клавдия Мари Большие сиськи  зрелой мамочки
Фото фильма ClaudiaMarie-BigTittySouthernMILF-Cummin Клавдия Мари Большие сиськи зрелой мамочки
ClaudiaMarie-BigTittySouthernMILF-Cummin             Клавдия Мари Большие сиськи  зрелой мамочки

Обзор



ОТЛИЧНАЯ ПЫШНОГРУДАЯ МАМОЧКА!БЕЗУПРЕЧНЫЙ ТРАХ МАМОЧКИ!




Format                           : AVI
Format/Info                      : Audio Video Interleave
File size                        : 211 MiB
Duration                         : 20mn 13s
Overall bit rate                 : 1 459 Kbps

Video
ID                               : 0
Format                           : MPEG-4 Visual
Format profile                   : AdvancedSimple@L5
Format settings, BVOP            : Yes
Format settings, QPel            : No
Format settings, GMC             : No warppoints
Format settings, Matrix          : Default (H.263)
Muxing mode                      : Packed bitstream
Codec ID                         : XVID
Codec ID/Hint                    : XviD
Duration                         : 20mn 13s
Bit rate                         : 1 321 Kbps
Width                            : 480 pixels
Height                           : 360 pixels
Display aspect ratio             : 4:3
Frame rate                       : 30.000 fps
Resolution                       : 24 bits
Colorimetry                      : 4:2:0
Scan type                        : Progressive
Bits/(Pixel*Frame)               : 0.255
Stream size                      : 191 MiB (91%)
Writing library                  : XviD 1.1.2 (UTC 2006-11-01)

Audio
ID                               : 1
Format                           : MPEG Audio
Format version                   : Version 1
Format profile                   : Layer 3
Codec ID                         : 55
Codec ID/Hint                    : MP3
Duration                         : 20mn 13s
Bit rate mode                    : Constant
Bit rate                         : 128 Kbps
Channel(s)                       : 2 channels
Sampling rate                    : 44.1 KHz
Resolution                       : 16 bits
Video delay                      : 26ms
Stream size                      : 18.5 MiB (9%)
Alignment                        : Split accross interleaves
Interleave, duration             : 52 ms (1.57 video frames)
Writing library                  : LAME3.93









ПРИЯТНОГО ПРОСМОТРА ГОСПОДА!
Размер211.14 MB (221,393,556 байт)
Скачать ClaudiaMarie-BigTittySouthernMILF-Cummin Клавдия Мари Большие сиськи зрелой мамочки

:: ОТЗЫВЫ


button_offline Отзыв от Sango Human
avatar 739835

Вот такая зрелая женщина!

button_offline Отзыв от Sango Human
avatar 739835

Слабовато спасибо жмем :-( :-( :-( :-(

button_offline Отзыв от karickis
avatar 316557

спасибо!!!женщина в соку суппер :-D :-D :-D

button_offline Отзыв от katalist
avatar 335339

ру-ле-з--з-з-з-з-з-з-з-з, спс...

button_offline Отзыв от qwerty
avatar 322089

Вот это да !!! Спасибо !!!

button_offline Отзыв от 69as69
avatar 702651

Спасибо!!!!!!!!!!!!!!!

button_offline Отзыв от козлов62
avatar 696662

спасибо не забыл!!! ;-) :-D

button_offline Отзыв от proseka163
avatar 728221

Спасибо!Нормальное видио.

button_offline Отзыв от kadett1979
avatar 325545

Мне эта сучка очень нравится. Несмотря на то, что данный ролик у меня уже есть, раздающему всё равно "спасибо". Прекрасное - в массы...

button_offline Отзыв от maxtersky
avatar 732276

Спасибо!!!!!!!!!!!!!!!!

button_offline Отзыв от якут
avatar 327422

Хорошая киношка !!!!!!!!!!!!!!!!!!!!!!!!!!!!!

РЕГИСТРАЦИЯ.

Смотрите бесплатное порно или эротику

footerLeft
Информация для правообладателей На ёгли вы скачаете порно, бесплатные фильмы, а также новинки кино. Все это бесплатно и без смс.