Cкачать бесплатно фильмы.
Поиск фильмов
Log Pass забыли?
  Бесплатные фильмы
Скачать Cougar Hunt I Охота Пумы I
Видео закрыто попробуйте наити похожие Cougar Hunt I Охота Пумы I
КатегорияЗрелые / Груди
Похожие фильмы



Похожие онлайн фильмы
Постер фильма Cougar Hunt I Охота Пумы I
Cougar Hunt I                                         Охота Пумы I
Фото фильма Cougar Hunt I Охота Пумы I
Cougar Hunt I                                         Охота Пумы I

Обзор



ОЧЕНЬ НЕПЛОХАЯ  ГРУДАСТАЯ ПУМА С УПРУГОЙ ЗАДНИЦЕЙ, ПОПАЛА ПОД ПРЕСС ФАЛЛОСА!









File size                        : 133 MiB
Duration                         : 27mn 24s
Overall bit rate mode            : Variable
Overall bit rate                 : 676 Kbps
Maximum Overall bit rate         : 1 347 Kbps
Movie name                       : Cougar Hunt
Encoded date                     : UTC 2008-01-04 20:56:36.265

Video
ID                               : 2
Format                           : WMV2
Codec ID                         : WMV2
Codec ID/Info                    : Windows Media Video 8
Duration                         : 27mn 22s
Bit rate mode                    : Variable
Bit rate                         : 625 Kbps
Width                            : 480 pixels
Height                           : 352 pixels
Display aspect ratio             : 4:3
Frame rate                       : 23.976 fps
Resolution                       : 24 bits
Bits/(Pixel*Frame)               : 0.154
Stream size                      : 122 MiB (92%)
Language                         : English (US)

Audio
ID                               : 1
Format                           : WMA
Format version                   : Version 2
Codec ID                         : 161
Codec ID/Info                    : Windows Media Audio
Duration                         : 27mn 24s
Bit rate mode                    : Constant
Bit rate                         : 64.0 Kbps
Channel(s)                       : 2 channels
Sampling rate                    : 44.1 KHz
Resolution                       : 16 bits
Stream size                      : 12.6 MiB (9%)
Language                         : English (US)







ПРИЯТНОГО ПРОСМОТРА ГОСПОДА!






ПРОДОЛЖЕНИЕ ОХОТЫ ПУМЫ БУДЕТ ЗАВИСЕТЬ ОТ ВАШЕГО НАЖАТИЯ КНОПКИ СПАСИБО!
Размер132.50 MB (138,940,506 байт)
Скачать Cougar Hunt I Охота Пумы I
Видео закрыто попробуйте наити похожие Cougar Hunt I Охота Пумы I

:: ОТЗЫВЫ


button_offline Отзыв от uiras
avatar 744881

спасибо!!! :w00t: :w00t: :w00t:

button_offline Отзыв от Inferi
avatar 634911

размер что надо :w00t: :w00t: :w00t: :w00t:

button_offline Отзыв от katalist
avatar 335339

предлагаю национализировать это добро и использовать в народном хозяйстве для повышения надоев...

button_offline Отзыв от козлов62
avatar 696662

спасибо не забыл!!! :w00t: :-D

button_offline Отзыв от proseka163
avatar 728221

Спасибо!Нормальное видио.

button_offline Отзыв от maxtersky
avatar 732276

Спасибо!!!!!!!!!!!!!!!!

button_offline Отзыв от vantuss
avatar 219102

Ого!!!!!!!!!!!!!!!!!!!!!!!!!!!!! :w00t:

button_offline Отзыв от OsBoris
avatar 748301

Спасибо за труды. Отличный релиз  :-)

button_offline Отзыв от Gantamir
avatar 655710

Holly Halston - супер звездочка!!! :!: :!: :!:

button_offline Отзыв от якут
avatar 327422

Хорошая киношка !!!!!!!!!!!!!!!!!!!!!!!!!!!!!

button_offline Отзыв от stimur
avatar 753327

классный фильмец!!!! :w00t:

button_offline Отзыв от kdalas
avatar 413903

Супер!!! :-) ;-) :-)

РЕГИСТРАЦИЯ.

Смотрите бесплатное порно или эротику

footerLeft
Информация для правообладателей На ёгли вы скачаете порно, бесплатные фильмы, а также новинки кино. Все это бесплатно и без смс.