Cкачать бесплатно фильмы.
Поиск фильмов
Log Pass забыли?
  Бесплатные фильмы
Скачать Cougar Hunt II Охота пумы II
Видео закрыто попробуйте наити похожие Cougar Hunt II Охота пумы II
КатегорияЗрелые
Похожие фильмы



Похожие онлайн фильмы
Постер фильма Cougar Hunt II Охота пумы II
Cougar Hunt II                                Охота пумы  II
Фото фильма Cougar Hunt II Охота пумы II
Cougar Hunt II                                Охота пумы  II

Обзор



СИМПОТНАЯ ЗРЕЛАЯ БРЮНЕТКА  РЕШИЛА ПООХОТИТСЯ НА ХОРОШЕГО МОЛОДОГО ПАРЕНЬКА!ОХОТА УДАЛАСЬ НА СЛАВУ!




Format                           : Windows Media
File size                        : 115 MiB
Duration                         : 26mn 7s
Overall bit rate mode            : Variable
Overall bit rate                 : 618 Kbps
Maximum Overall bit rate         : 1 347 Kbps
Movie name                       : Cougar Hunt
Encoded date                     : UTC 2008-01-04 20:58:00.484

Video
ID                               : 2
Format                           : WMV2
Codec ID                         : WMV2
Codec ID/Info                    : Windows Media Video 8
Duration                         : 26mn 5s
Bit rate mode                    : Variable
Bit rate                         : 625 Kbps
Width                            : 480 pixels
Height                           : 352 pixels
Display aspect ratio             : 4:3
Frame rate                       : 23.976 fps
Resolution                       : 24 bits
Bits/(Pixel*Frame)               : 0.154
Stream size                      : 117 MiB
Language                         : English (US)

Audio
ID                               : 1
Format                           : WMA
Format version                   : Version 2
Codec ID                         : 161
Codec ID/Info                    : Windows Media Audio
Duration                         : 26mn 7s
Bit rate mode                    : Constant
Bit rate                         : 64.0 Kbps
Channel(s)                       : 2 channels
Sampling rate                    : 44.1 KHz
Resolution                       : 16 bits
Stream size                      : 12.0 MiB (10%)
Language                         : English (US)








ПРИЯТНО ПРОСМОТРА ГОСПОДА!




СПАСИБО ЗА НАЖАТЫЕ СПАСИБО!!!
Размер115.46 MB (121,068,044 байт)
Скачать Cougar Hunt II Охота пумы II
Видео закрыто попробуйте наити похожие Cougar Hunt II Охота пумы II

:: ОТЗЫВЫ


button_offline Отзыв от uiras
avatar 744881

спасибо!!! :w00t: :w00t: :w00t:

button_offline Отзыв от maxtersky
avatar 732276

Спасибо!!!!!!!!!!!!!!!!

button_offline Отзыв от KUZ3
avatar 728035

Спасибо классный секс!!!!!! ;-)

button_offline Отзыв от козлов62
avatar 696662

спасибо не забыл!!! :-D

button_offline Отзыв от Voine
avatar 706904

Спасибо. :-) :-) :-)

button_offline Отзыв от KUZ3
avatar 728035

Да обжабашали ее круто исхуевертили вовсе блять дыры а дыра так ниче не больно большая!!!!!! :-) :-) :-)

button_offline Отзыв от OsBoris
avatar 748301

Спасибо за труды. Отличный релиз  :-)

button_offline Отзыв от якут
avatar 327422

Хорошая киношка !!!!!!!!!!!!!!!!!!!!!!!!!!!!!

button_offline Отзыв от waw50
avatar 748346

Маша, размечтавшись, встанет раком,
Маша очень любит эту позу,
Ведь она ебется, как собака -
Вся в желаньи прыгнуть на занозу.

Значит, наша Маша – балерина,
Много у нее позиций всяких…
Как люблю смотреть я на картину -
Маша без трусов и в позе рака!

Маша – наша милая девчонка,
Маша – хулиганка, забияка;
Выучила Машенька с пеленок:
Есть такая поза – поза раком!

Машу уважают, Машу ценят -
У нее в фигурочка без брака…
Приласкают нежно и разденут,
И поставят сразу в позу рака!

Маша ходит в золоте, в брильянтах,
Думает о будущем без страха -
Для нее надежней всех гарантий
Поза счастья – это поза рака!

РЕГИСТРАЦИЯ.

Смотрите бесплатное порно или эротику

footerLeft
Информация для правообладателей На ёгли вы скачаете порно, бесплатные фильмы, а также новинки кино. Все это бесплатно и без смс.