Cкачать бесплатно фильмы.
Поиск фильмов
Log Pass забыли?
  Бесплатные фильмы
Скачать Danielle Derek Night Dreams With Danielle Derek Даниель Дерек ночные фантазии с Даниель Дерек
КатегорияГруди
Похожие фильмы



Похожие онлайн фильмы
Постер фильма Danielle Derek Night Dreams With Danielle Derek Даниель Дерек ночные фантазии с Даниель Дерек
Danielle Derek Night Dreams With Danielle Derek         Даниель Дерек ночные фантазии с Даниель Дерек
Фото фильма Danielle Derek Night Dreams With Danielle Derek Даниель Дерек ночные фантазии с Даниель Дерек
Danielle Derek Night Dreams With Danielle Derek         Даниель Дерек ночные фантазии с Даниель Дерек

Обзор



ГРУДАСТО ГУБАСТАЯ С ОГРОМНЫМ РТОМ БЛОНДИНКА ПРЕКРАСНО БЫЛА ТРАХНУТА В СВОИХ ФАНТАЗИЯХ НАЯВУ!






File size                        : 441 MiB
Duration                         : 30mn 22s
Overall bit rate mode            : Constant
Overall bit rate                 : 2 031 Kbps
Maximum Overall bit rate         : 2 041 Kbps
Encoded date                     : UTC 2006-08-11 17:45:38.766

Video
ID                               : 2
Format                           : VC-1
Format profile                   : MP@ML
Codec ID                         : WMV3
Codec ID/Info                    : Windows Media Video 9
Codec ID/Hint                    : WMV3
Description of the codec         : Windows Media Video 9 - Professional
Duration                         : 30mn 20s
Bit rate mode                    : Constant
Bit rate                         : 2 000 Kbps
Width                            : 640 pixels
Height                           : 480 pixels
Display aspect ratio             : 4:3
Frame rate                       : 29.970 fps
Resolution                       : 24 bits
Scan type                        : Progressive
Bits/(Pixel*Frame)               : 0.217
Stream size                      : 434 MiB (98%)
Language                         : English (US)

Audio
ID                               : 1
Format                           : WMA
Format version                   : Version 2
Codec ID                         : 161
Codec ID/Info                    : Windows Media Audio
Description of the codec         : Windows Media Audio 9.1 -  22 kbps, 22 kHz, stereo (A/V) 1-pass CBR
Duration                         : 30mn 22s
Bit rate mode                    : Constant
Bit rate                         : 22.0 Kbps
Channel(s)                       : 2 channels
Sampling rate                    : 22.05 KHz
Resolution                       : 16 bits
Stream size                      : 4.78 MiB (1%)
Language                         : English (US)








ПРИЯТНОГО ПРОСМОТРА ГОСПОДА!






СПАСИБО, ЗА НАЖАТЫЕ ВАМИ СПАСИБО!
Размер441.34 MB (462,776,340 байт)
Скачать Danielle Derek Night Dreams With Danielle Derek Даниель Дерек ночные фантазии с Даниель Дерек

:: ОТЗЫВЫ


button_offline Отзыв от Inferi
avatar 634911

размер что надо   :w00t: :w00t: :w00t: :w00t:

button_offline Отзыв от maxtersky
avatar 732276

Спасибо!!!!!!!!!!!!!!!!

button_offline Отзыв от козлов62
avatar 696662

ротик для двух!!! ;-) :-D

РЕГИСТРАЦИЯ.

Смотрите бесплатное порно или эротику

footerLeft
Информация для правообладателей На ёгли вы скачаете порно, бесплатные фильмы, а также новинки кино. Все это бесплатно и без смс.