Cкачать бесплатно фильмы.
Поиск фильмов
Log Pass забыли?
  Бесплатные фильмы
Скачать Daphne Rosen - Big Tits at Work Дафна Роузен Большие сиськи на работе
КатегорияЗрелые / Анал / Груди
Похожие фильмы



Похожие онлайн фильмы
Постер фильма Daphne Rosen - Big Tits at Work Дафна Роузен Большие сиськи на работе
Daphne Rosen - Big Tits at Work                         Дафна Роузен Большие сиськи на работе
Фото фильма Daphne Rosen - Big Tits at Work Дафна Роузен Большие сиськи на работе
Daphne Rosen - Big Tits at Work                         Дафна Роузен Большие сиськи на работе

Обзор



ПРЕКРАСНЫЙ АНАЛЬНЫЙ СЕКС СО ЗРЕЛОЙ ГРУДАСТОЙ ЛЮБЯЩЕЙ АНАЛ  TOP  STAR  ПОРНО!!!


КАЧАТЬ ВСЕМ!!!!!!! :-D :-D :-D



File size                        : 323 MiB
Duration                         : 36mn 0s
Overall bit rate mode            : Constant
Overall bit rate                 : 1 255 Kbps
Maximum Overall bit rate         : 1 261 Kbps
Encoded date                     : UTC 2065-11-01 09:23:12 / UTC 2007-01-31 21:51:38.453
Writing application              : TMPGEnc 3.0 XPress Version. 3.3.7.116
PRIVATE/TotalBitrate             : 1248024
WM/VideoHeight                   : 480
WM/VideoWidth                    : 640
WM/VideoFrameRate                : 29970

Video
ID                               : 2
Format                           : WMV2
Codec ID                         : WMV2
Codec ID/Info                    : Windows Media Video 8
Description of the codec         : Windows Media Video V8
Duration                         : 35mn 58s
Bit rate mode                    : Constant
Bit rate                         : 1 200 Kbps
Width                            : 640 pixels
Height                           : 480 pixels
Display aspect ratio             : 4:3
Frame rate                       : 29.970 fps
Resolution                       : 24 bits
Bits/(Pixel*Frame)               : 0.130
Stream size                      : 309 MiB (96%)

Audio
ID                               : 1
Format                           : WMA
Format version                   : Version 2
Codec ID                         : 161
Codec ID/Info                    : Windows Media Audio
Description of the codec         : Windows Media Audio 9.1 -  48 kbps, 44 kHz, stereo 1-pass CBR
Duration                         : 36mn 0s
Bit rate mode                    : Constant
Bit rate                         : 48.0 Kbps
Channel(s)                       : 2 channels
Sampling rate                    : 44.1 KHz
Resolution                       : 16 bits
Stream size                      : 12.4 MiB (4%)






ПРИЯТНОГО ПРОСМОТРА ГОСПОДА!



ПОМНИТЕ ВАШИ НАЖАТЫЕ СПАСИБО РАСПОЛАГАЮТ АВТОРА НА ДАЛЬНЕЙШИЕ РАЗДАЧИ ДЛЯ ВАС!
Размер323.30 MB (339,002,440 байт)
Скачать Daphne Rosen - Big Tits at Work Дафна Роузен Большие сиськи на работе

:: ОТЗЫВЫ


button_offline Отзыв от Inferi
avatar 634911

размер что надо   :w00t: :w00t: :w00t: :w00t:

button_offline Отзыв от maxtersky
avatar 732276

Спасибо!!!!!!!!!!!!!!!!

button_offline Отзыв от козлов62
avatar 696662

кнопка нажата!!! ;-) :-D

button_offline Отзыв от Voine
avatar 706904

Спасибо. :-) :-) :-)

button_offline Отзыв от Blackzero
avatar 421842

Сэнкью :w00t: ;-) :-D

button_offline Отзыв от MOHCTP202
avatar 277681

Спасибо !!!!!!!!!!!!!!

button_offline Отзыв от OsBoris
avatar 748301

Спасибо за труды. Отличный релиз  :-)

button_offline Отзыв от якут
avatar 327422

Хорошая киношка !!!!!!!!!!!!!!!!!!!!!!!!!!!!!

button_offline Отзыв от waw50
avatar 748346

Маша, размечтавшись, встанет раком,
Маша очень любит эту позу,
Ведь она ебется, как собака -
Вся в желаньи прыгнуть на занозу.

Значит, наша Маша – балерина,
Много у нее позиций всяких…
Как люблю смотреть я на картину -
Маша без трусов и в позе рака!

Маша – наша милая девчонка,
Маша – хулиганка, забияка;
Выучила Машенька с пеленок:
Есть такая поза – поза раком!

Машу уважают, Машу ценят -
У нее в фигурочка без брака…
Приласкают нежно и разденут,
И поставят сразу в позу рака!

Маша ходит в золоте, в брильянтах,
Думает о будущем без страха -
Для нее надежней всех гарантий
Поза счастья – это поза рака!

button_offline Отзыв от star69
avatar 411439

Спаааасссииибооо :w00t: :w00t: :w00t: :w00t:

button_offline Отзыв от Sango Human
avatar 739835

ЕВРЕЙКАЯ БЛЯДЬ!  :-) :-) :-) :-) :-)

РЕГИСТРАЦИЯ.

Смотрите бесплатное порно или эротику

footerLeft
Информация для правообладателей На ёгли вы скачаете порно, бесплатные фильмы, а также новинки кино. Все это бесплатно и без смс.