Cкачать бесплатно фильмы.
Поиск фильмов
Log Pass забыли?
  Бесплатные фильмы
Скачать Darla Crane Come Under My Spell Дарла Крейн приходит под гипнозом
КатегорияЗрелые / Анал
Похожие фильмы



Похожие онлайн фильмы
Постер фильма Darla Crane Come Under My Spell Дарла Крейн приходит под гипнозом
Darla Crane Come Under My Spell               Дарла Крейн  приходит под гипнозом
Фото фильма Darla Crane Come Under My Spell Дарла Крейн приходит под гипнозом
Darla Crane Come Under My Spell               Дарла Крейн  приходит под гипнозом

Обзор



ПРЕКРАСНАЯ ЖЕНЩИНА НЕМНОЖКО ПОПАЛА ПОД  РАЗДАЧУ БЕСПЛАТНОГО СЕКСА!








File size                        : 88.3 MiB
Duration                         : 16mn 46s
Overall bit rate mode            : Variable
Overall bit rate                 : 736 Kbps
Maximum Overall bit rate         : 1 557 Kbps
Movie name                       : Come Under My Spell
Encoded date                     : UTC 2007-11-02 19:52:45.718

Video
ID                               : 2
Format                           : WMV2
Codec ID                         : WMV2
Codec ID/Info                    : Windows Media Video 8
Duration                         : 16mn 45s
Bit rate mode                    : Variable
Bit rate                         : 656 Kbps
Width                            : 480 pixels
Height                           : 352 pixels
Display aspect ratio             : 4:3
Frame rate                       : 23.976 fps
Resolution                       : 24 bits
Bits/(Pixel*Frame)               : 0.162
Stream size                      : 78.6 MiB (89%)
Language                         : English (US)

Audio
ID                               : 1
Format                           : WMA
Format version                   : Version 2
Codec ID                         : 161
Codec ID/Info                    : Windows Media Audio
Duration                         : 16mn 46s
Bit rate mode                    : Constant
Bit rate                         : 64.0 Kbps
Channel(s)                       : 2 channels
Sampling rate                    : 44.1 KHz
Resolution                       : 16 bits
Stream size                      : 7.68 MiB (9%)
Language                         : English (US)







ПРИЯТНОГО ПРОСМОТРА ГОСПОДА!




ПОМНИТЕ ГОСПОДА ВАШЕ НАЖАТИЕ КНОПКИ СПАСИБО РАСПОЛАГАЕТ АВТОРА К ДАЛЬНЕЙШИМ РАЗДАЧАМ!





Размер88.28 MB (92,568,694 байт)
Скачать Darla Crane Come Under My Spell Дарла Крейн приходит под гипнозом

:: ОТЗЫВЫ


button_offline Отзыв от SenseDeath
avatar 463176

Спасибо отлично!  :w00t: :w00t: :w00t: Качаю)) :weirdo:

button_offline Отзыв от qwerty
avatar 322089

Красивая женщина... Спасибо !!

button_offline Отзыв от козлов62
avatar 696662

очень приятная!!! ;-) :-P

button_offline Отзыв от proseka163
avatar 728221

Спасибо!Нормальное видио.

button_offline Отзыв от star69
avatar 411439

оч хорошо :sneaky: :sneaky: :sneaky:

button_offline Отзыв от maxtersky
avatar 732276

Спасибо!!!!!!!!!!!!!!!!

button_offline Отзыв от Voine
avatar 706904

Спасибо. :-) :-) :-)

button_offline Отзыв от якут
avatar 327422

Хорошая киношка !!!!!!!!!!!!!!!!!!!!!!!!!!!!!

button_offline Отзыв от kdalas
avatar 413903

Супер!!! :-) ;-) :-)

РЕГИСТРАЦИЯ.

Смотрите бесплатное порно или эротику

footerLeft
Информация для правообладателей На ёгли вы скачаете порно, бесплатные фильмы, а также новинки кино. Все это бесплатно и без смс.