Cкачать бесплатно фильмы.
Поиск фильмов
Log Pass забыли?
  Бесплатные фильмы
Скачать Domination Zone Two Doctors Два доктора
КатегорияМежрассовое / Анал
Похожие фильмы



Похожие онлайн фильмы
Постер фильма Domination Zone Two Doctors Два доктора
Domination Zone  Two Doctors                  Два доктора
Фото фильма Domination Zone Two Doctors Два доктора
Domination Zone  Two Doctors                  Два доктора

Обзор



ДВА ДОКТОРА ОДИН ИЗ КОТОРЫХ ЧЕРНЕЕ НОЧИ РЕШИЛИ НЕ ТЕРЯТЬ ВРЕМЕНИ И ПОЛЮБИТЬ ДРУГ ДРУГА ПРЯМО НА РАБОЧЕМ МЕСТЕ В ОДНОМ ИЗ КАБИНЕТОВ, ОДНОГО ИЗ КОЛЛЕГ!
БЛИСТАТЕЛЬНЫЙ АНАЛЬНЫЙ СЕКС УДАЛСЯ НА СЛАВУ!НЕГР ПОТРУДИЛСЯ!БРЮНЕТКА ДОВОЛЬНА!






File size                        : 131 MiB
Duration                         : 19mn 41s
Overall bit rate mode            : Variable
Overall bit rate                 : 931 Kbps
Maximum Overall bit rate         : 1 355 Kbps
Movie name                       : Domination Zone
Encoded date                     : UTC 2007-12-21 06:59:45.375

Video
ID                               : 2
Format                           : WMV2
Codec ID                         : WMV2
Codec ID/Info                    : Windows Media Video 8
Duration                         : 19mn 39s
Bit rate mode                    : Variable
Bit rate                         : 743 Kbps
Width                            : 480 pixels
Height                           : 352 pixels
Display aspect ratio             : 4:3
Frame rate                       : 23.976 fps
Resolution                       : 24 bits
Bits/(Pixel*Frame)               : 0.183
Stream size                      : 104 MiB (80%)
Language                         : English (US)

Audio
ID                               : 1
Format                           : WMA
Format version                   : Version 2
Codec ID                         : 161
Codec ID/Info                    : Windows Media Audio
Duration                         : 19mn 41s
Bit rate mode                    : Constant
Bit rate                         : 64.0 Kbps
Channel(s)                       : 2 channels
Sampling rate                    : 44.1 KHz
Resolution                       : 16 bits
Stream size                      : 9.02 MiB (7%)
Language                         : English (US)







ПРИЯТНОГО ПРОСМОТРА ГОСПОДА!



ЖМИТЕ СПАСИБО  БУДЕТ ВДОХНОВЕНИЕ РАЗДОВАТЬ!
Размер131.05 MB (137,420,300 байт)
Скачать Domination Zone Two Doctors Два доктора

:: ОТЗЫВЫ


button_offline Отзыв от SenseDeath
avatar 463176

Спасибо отлично ! :w00t: :w00t: :w00t: качаю..)

button_offline Отзыв от козлов62
avatar 696662

спасибо нажат!!! ;-) :-D

button_offline Отзыв от якут
avatar 327422

Хорошая киношка !!!!!!!!!!!!!!!!!!!!!!!!!!!!!

РЕГИСТРАЦИЯ.

Смотрите бесплатное порно или эротику

footerLeft
Информация для правообладателей На ёгли вы скачаете порно, бесплатные фильмы, а также новинки кино. Все это бесплатно и без смс.