Cкачать бесплатно фильмы.
Поиск фильмов
Log Pass забыли?
  Бесплатные фильмы
Скачать Double Anal Alternatives Альтернатива двойное проникновение
КатегорияЗрелые / Жёсткое / Анал
Похожие фильмы



Похожие онлайн фильмы
Постер фильма Double Anal Alternatives Альтернатива двойное проникновение
Double Anal Alternatives                      Альтернатива двойное проникновение
Фото фильма Double Anal Alternatives Альтернатива двойное проникновение
Double Anal Alternatives                      Альтернатива двойное проникновение

Обзор



ДВА ПАРНЯ ЖЕСТКО И НАСТОЙЧИВО ОТОДРАЛИ ЗРЕЛУЮ ТЕЛКУ!




Format                           : Windows Media
File size                        : 65.2 MiB
Duration                         : 12mn 42s
Overall bit rate mode            : Variable
Overall bit rate                 : 717 Kbps
Maximum Overall bit rate         : 1 699 Kbps
Movie name                       : Double Anal Alternatives
Encoded date                     : UTC 2006-05-10 04:09:47.406

Video
ID                               : 2
Format                           : WMV2
Codec ID                         : WMV2
Codec ID/Info                    : Windows Media Video 8
Duration                         : 12mn 42s
Bit rate mode                    : Variable
Bit rate                         : 770 Kbps
Width                            : 480 pixels
Height                           : 352 pixels
Display aspect ratio             : 4:3
Frame rate                       : 23.976 fps
Resolution                       : 24 bits
Bits/(Pixel*Frame)               : 0.190
Stream size                      : 70.0 MiB
Language                         : English (US)

Audio
ID                               : 1
Format                           : WMA
Format version                   : Version 2
Codec ID                         : 161
Codec ID/Info                    : Windows Media Audio
Duration                         : 12mn 42s
Bit rate mode                    : Constant
Bit rate                         : 64.0 Kbps
Channel(s)                       : 2 channels
Sampling rate                    : 44.1 KHz
Resolution                       : 16 bits
Stream size                      : 5.82 MiB (9%)
Language                         : English (US)








ПРИЯТНОГО ПРОСМОТРА ГОСПОДА!!!
Размер65.21 MB (68,375,240 байт)
Скачать Double Anal Alternatives Альтернатива двойное проникновение

:: ОТЗЫВЫ


button_offline Отзыв от MOHCTP202
avatar 277681

Спасибо !!!!!!!!!!!!!!!!!!!!

button_offline Отзыв от sultanxan
avatar 751185

Хороший фильм СПАСИБО!!!!

button_offline Отзыв от SenseDeath
avatar 463176

Спасибо отлично!  :w00t: :w00t: :w00t:

button_offline Отзыв от козлов62
avatar 696662

спасибо нажал!!! :-D :-D

button_offline Отзыв от SAMOR009
avatar 338417

Спасибо  :w00t: :w00t: :w00t:

button_offline Отзыв от Vladll
avatar 349091

...зачетное кино, автору за труды нажато СПАСИБО  ;-) ;-) ;-)....

button_offline Отзыв от Retil
avatar 730684

приятного просмотра фильм суперский :w00t: :w00t: :w00t:

button_offline Отзыв от waw50
avatar 748346

Радистка Кэт
Залезла в Интернет.
Хотела она
Насладиться сполна
Интересным делом -
Наслаждением своим телом.

Радистка Кэт
Вошла на eogli .org,
Внимательно читала,
И всё запоминала.

Какой страстной стала тела изгаляция,
Какой импульсивной стала мастурбация,
Какой сладкой стала киски вибрация!

button_offline Отзыв от kdalas
avatar 413903

Супер!!! :-) ;-) :-)

button_offline Отзыв от якут
avatar 327422

Благодарствую, прикольное видео !!!

button_offline Отзыв от lubushka
avatar 358517

обалдеть))))) :w00t:

button_offline Отзыв от jonni666
avatar 616847

хыыы прикольно )))) спс  :w00t: :w00t: :w00t:

button_offline Отзыв от uiras
avatar 744881

прикольно :-D :-D :-D

РЕГИСТРАЦИЯ.

Смотрите бесплатное порно или эротику

footerLeft
Информация для правообладателей На ёгли вы скачаете порно, бесплатные фильмы, а также новинки кино. Все это бесплатно и без смс.