Cкачать бесплатно фильмы.
Поиск фильмов
Log Pass забыли?
  Бесплатные фильмы
Скачать Dual Invasion I Двойное вторжениеI
КатегорияЖёсткое / Молодые / Анал
Похожие фильмы



Похожие онлайн фильмы
Постер фильма Dual Invasion I Двойное вторжениеI
Dual Invasion I                        Двойное вторжениеI
Фото фильма Dual Invasion I Двойное вторжениеI
Dual Invasion I                        Двойное вторжениеI

Обзор



ДВОЙНОЕ ВТОРЖЕНИЕ В СИМПАТИЧНУЮ АППЕТИТНУЮ БЛОНДИНКУ!ЖЕСТКО СТРАСТНО И НАСТОЙЧИВО!

Format                           : Windows Media
File size                        : 171 MiB
Duration                         : 36mn 7s
Overall bit rate mode            : Variable
Overall bit rate                 : 663 Kbps
Maximum Overall bit rate         : 1 302 Kbps
Movie name                       : Dual Invasion #1
Encoded date                     : UTC 2007-11-25 02:22:45.406

Video
ID                               : 2
Format                           : WMV2
Codec ID                         : WMV2
Codec ID/Info                    : Windows Media Video 8
Duration                         : 36mn 5s
Bit rate mode                    : Variable
Bit rate                         : 649 Kbps
Width                            : 480 pixels
Height                           : 352 pixels
Display aspect ratio             : 4:3
Frame rate                       : 23.976 fps
Resolution                       : 24 bits
Bits/(Pixel*Frame)               : 0.160
Stream size                      : 168 MiB (98%)
Language                         : English (US)

Audio
ID                               : 1
Format                           : WMA
Format version                   : Version 2
Codec ID                         : 161
Codec ID/Info                    : Windows Media Audio
Duration                         : 36mn 7s
Bit rate mode                    : Constant
Bit rate                         : 64.0 Kbps
Channel(s)                       : 2 channels
Sampling rate                    : 44.1 KHz
Resolution                       : 16 bits
Stream size                      : 16.5 MiB (10%)
Language                         : English (US)







ПРИЯТНОГО ПРОСМОТРА ГОСПОДА!






Размер171.33 MB (179,647,654 байт)
Скачать Dual Invasion I Двойное вторжениеI

:: ОТЗЫВЫ


button_offline Отзыв от козлов62
avatar 696662

спасибо нажат!!! :w00t: :-D

button_offline Отзыв от proseka163
avatar 728221

Спасибо!Нормальное видио.

button_offline Отзыв от SenseDeath
avatar 463176

Спасибо отлично!  :w00t: :w00t: :w00t:

button_offline Отзыв от якут
avatar 327422

Благодарствую, прикольное видео !!!

РЕГИСТРАЦИЯ.

Смотрите бесплатное порно или эротику

footerLeft
Информация для правообладателей На ёгли вы скачаете порно, бесплатные фильмы, а также новинки кино. Все это бесплатно и без смс.