Cкачать бесплатно фильмы.
Поиск фильмов
Log Pass забыли?
  Бесплатные фильмы
Скачать Dual Invasion2 Двойное вторжение 2
КатегорияЖёсткое / Молодые / Анал
Похожие фильмы



Похожие онлайн фильмы
Постер фильма Dual Invasion2 Двойное вторжение 2
Dual Invasion2                                       Двойное вторжение 2
Фото фильма Dual Invasion2 Двойное вторжение 2
Dual Invasion2                                       Двойное вторжение 2

Обзор



ДА, А ЭТА БРЮНЕТОЧКА С АППЕТИТНОЙ ПРЕКРАСНОЙ ЕСТЕСТВЕННОЙ ГРУДЬЮ БЫЛА НЕПЛОХО ТРАХНУТА В ТРИ ОТВЕРСТИЯ ДВУМЯ ПАРНЯМИ, НУ КОНЕЧНО ЖЕ НЕ БЕЗ СВОЕГО СОГЛАСИЯ НА ЭТО!ПОСЛЕ ЧЕГО ПАРНИ КОНЧИЛИ ЕЙ В РОТ!




Format                           : Windows Media
File size                        : 157 MiB
Duration                         : 29mn 35s
Overall bit rate mode            : Variable
Overall bit rate                 : 740 Kbps
Maximum Overall bit rate         : 1 963 Kbps
Movie name                       : Dual Invasion #2
Encoded date                     : UTC 2007-11-25 02:33:03.780

Video
ID                               : 2
Format                           : WMV2
Codec ID                         : WMV2
Codec ID/Info                    : Windows Media Video 8
Duration                         : 29mn 33s
Bit rate mode                    : Variable
Bit rate                         : 707 Kbps
Width                            : 480 pixels
Height                           : 352 pixels
Display aspect ratio             : 4:3
Frame rate                       : 23.976 fps
Resolution                       : 24 bits
Bits/(Pixel*Frame)               : 0.175
Stream size                      : 150 MiB (96%)
Language                         : English (US)

Audio
ID                               : 1
Format                           : WMA
Format version                   : Version 2
Codec ID                         : 161
Codec ID/Info                    : Windows Media Audio
Duration                         : 29mn 35s
Bit rate mode                    : Constant
Bit rate                         : 64.0 Kbps
Channel(s)                       : 2 channels
Sampling rate                    : 44.1 KHz
Resolution                       : 16 bits
Stream size                      : 13.6 MiB (9%)
Language                         : English (US)







ПРИЯТНОГО ПРОСМОТРА ГОСПОДА!
Размер156.60 MB (164,205,302 байт)
Скачать Dual Invasion2 Двойное вторжение 2

:: ОТЗЫВЫ


button_offline Отзыв от Zonder2003
avatar 384505

Отработала  :-D :-D :-D

button_offline Отзыв от andrrau
avatar 748220

СПАСИБО!!!
Классно!!! :w00t: :w00t: :w00t:

button_offline Отзыв от козлов62
avatar 696662

симпапулька!!! ;-) :-P :-D

button_offline Отзыв от Deutchlander
avatar 25431

Откуда у Тори Лэйн естественная грудь????? Силикон 100% :-P

button_offline Отзыв от MOHCTP202
avatar 277681

Спасибо !!!!!!!!!!!!!!!!

button_offline Отзыв от Texco
avatar 600012

:w00t: Благодарю!!!  :w00t:  8-)

button_offline Отзыв от trezvinik
avatar 251164

мощно малчики обошлись с девочкой!! :-P

button_offline Отзыв от proseka163
avatar 728221

Спасибо!Нормальное видио.

button_offline Отзыв от Sango Human
avatar 739835

да у Тори Лейн естественная силиконовая грудь :-D :-D :-D :-D :-D :-) :-) :-) :-)

button_offline Отзыв от uacomp
avatar 292001

зачетноее видео. спасибо

button_offline Отзыв от Freeman115
avatar 719511

Силиконовая грудь - не силикатный кирпич, на ощупь гораздо приятнее!  :-D

button_offline Отзыв от SenseDeath
avatar 463176

Спасибо отлично!  :w00t: :w00t: :w00t:

button_offline Отзыв от якут
avatar 327422

Благодарствую, прикольное видео !!!

РЕГИСТРАЦИЯ.

Смотрите бесплатное порно или эротику

footerLeft
Информация для правообладателей На ёгли вы скачаете порно, бесплатные фильмы, а также новинки кино. Все это бесплатно и без смс.