Cкачать бесплатно фильмы.
Поиск фильмов
Log Pass забыли?
  Бесплатные фильмы
Скачать Electro pussy Электро писечка
КатегорияЗрелые
Похожие фильмы



Похожие онлайн фильмы
Постер фильма Electro pussy Электро писечка
Electro pussy                       Электро писечка
Фото фильма Electro pussy Электро писечка
Electro pussy                       Электро писечка

Обзор



ЛЕЖАЛИ ТЕЛКИ НА ПЛЯЖЕ МАЗАЛИСЬ МАСЛОМ МЕЧТАЛИ ВДРУГ У ОДНОЙ ЗАЧЕСАЛОСЬ РЕШИЛА ПОЙТИ ПООХОТИТСЯ НА ПАРНЯ ОХОТА УДАЛАСЬ!ПАРЕНЬ ПОИМЕЛ ПРЕКРАСНУЮ ЗРЕЛУЮ БЛОНДИНКУ!





File size                        : 56.8 MiB
Duration                         : 12mn 15s
Overall bit rate mode            : Variable
Overall bit rate                 : 648 Kbps
Maximum Overall bit rate         : 1 326 Kbps
Movie name                       : Electropussy
Encoded date                     : UTC 2007-11-07 03:53:36.468

Video
ID                               : 2
Format                           : WMV2
Codec ID                         : WMV2
Codec ID/Info                    : Windows Media Video 8
Duration                         : 12mn 14s
Bit rate mode                    : Variable
Bit rate                         : 547 Kbps
Width                            : 480 pixels
Height                           : 352 pixels
Display aspect ratio             : 4:3
Frame rate                       : 23.976 fps
Resolution                       : 24 bits
Bits/(Pixel*Frame)               : 0.135
Stream size                      : 47.9 MiB (84%)
Language                         : English (US)

Audio
ID                               : 1
Format                           : WMA
Format version                   : Version 2
Codec ID                         : 161
Codec ID/Info                    : Windows Media Audio
Duration                         : 12mn 15s
Bit rate mode                    : Constant
Bit rate                         : 64.0 Kbps
Channel(s)                       : 2 channels
Sampling rate                    : 44.1 KHz
Resolution                       : 16 bits
Stream size                      : 5.61 MiB (10%)
Language                         : English (US)









ПРИЯТНОГО ПРОСМОТРА ГОСПОДА!!!
ПРИЯТНОГО ПРОСМОТРА ГОСПОДА!!!








УВЕРЕННО ЖМЕМ СПАСИБО ГОСПОДА
Размер56.83 MB (59,591,054 байт)
Скачать Electro pussy Электро писечка

:: ОТЗЫВЫ


button_offline Отзыв от Zonder2003
avatar 384505

"Электро писечка" че она там током бьетса :?: :-D

button_offline Отзыв от SAMOR009
avatar 338417

Спасибо  :w00t: :w00t: :w00t:

button_offline Отзыв от козлов62
avatar 696662

спасибо нажал!!! :-D :-D

button_offline Отзыв от esqaz
avatar 355381

Качество  :shit: :shit: :shit: :shit: :shit:

button_offline Отзыв от proseka163
avatar 728221

Спасибо!Нормальное видио.

button_offline Отзыв от waw50
avatar 748346

Спасибо!Нормальное видио. :-D :-D :-D :-D :-D :-D :-D :-D :-D :-D

button_offline Отзыв от якут
avatar 327422

Благодарствую, прикольное видео !!!

button_offline Отзыв от jonni666
avatar 616847

ничё така бабушка)))) ебсти можно и нужно !!!! спс  :w00t: :w00t: :w00t:

РЕГИСТРАЦИЯ.

Смотрите бесплатное порно или эротику

footerLeft
Информация для правообладателей На ёгли вы скачаете порно, бесплатные фильмы, а также новинки кино. Все это бесплатно и без смс.