Cкачать бесплатно фильмы.
Поиск фильмов
Log Pass забыли?
  Бесплатные фильмы
Скачать Erika Bella - Euro Slut Эрика Белль - Евро шлюха
КатегорияЗрелые / Анал
Похожие фильмы



Похожие онлайн фильмы
Постер фильма Erika Bella - Euro Slut Эрика Белль - Евро шлюха
Erika Bella - Euro Slut                             Эрика Белль - Евро шлюха
Фото фильма Erika Bella - Euro Slut Эрика Белль - Евро шлюха
Erika Bella - Euro Slut                             Эрика Белль - Евро шлюха

Обзор



ОТЛИЧНЫЙ СЕКС СО ЗВЕЗДОЙ ПОРНО ЭРИКОЙ!НАДО СМОТРЕТЬ!



Format                           : Windows Media
File size                        : 125 MiB
Duration                         : 15mn 23s
Overall bit rate mode            : Variable
Overall bit rate                 : 1 132 Kbps
Maximum Overall bit rate         : 2 095 Kbps
Movie name                       : Erika Bella Euro Slut
Encoded date                     : UTC 2006-05-09 22:34:56.843

Video
ID                               : 2
Format                           : WMV2
Codec ID                         : WMV2
Codec ID/Info                    : Windows Media Video 8
Duration                         : 15mn 22s
Bit rate mode                    : Variable
Bit rate                         : 872 Kbps
Width                            : 480 pixels
Height                           : 352 pixels
Display aspect ratio             : 4:3
Frame rate                       : 23.976 fps
Resolution                       : 24 bits
Bits/(Pixel*Frame)               : 0.215
Stream size                      : 96.0 MiB (77%)
Language                         : English (US)

Audio
ID                               : 1
Format                           : WMA
Format version                   : Version 2
Codec ID                         : 161
Codec ID/Info                    : Windows Media Audio
Duration                         : 15mn 23s
Bit rate mode                    : Constant
Bit rate                         : 64.0 Kbps
Channel(s)                       : 2 channels
Sampling rate                    : 44.1 KHz
Resolution                       : 16 bits
Stream size                      : 7.05 MiB (6%)
Language                         : English (US)







ПРИЯТНОГО ПРОСМОТРА ГОСПОДА!
Размер124.66 MB (130,712,200 байт)
Скачать Erika Bella - Euro Slut Эрика Белль - Евро шлюха

:: ОТЗЫВЫ


button_offline Отзыв от козлов62
avatar 696662

клево!!! ;-) :-D :-D

button_offline Отзыв от esqaz
avatar 355381

качество  :shit: :shit: :shit: :shit: :shit:

button_offline Отзыв от proseka163
avatar 728221

Спасибо!Нормальное видио.

button_offline Отзыв от Vladll
avatar 349091

...зачетное кино, автору за труды нажато СПАСИБО  ;-) ;-) ;-)....

button_offline Отзыв от waw50
avatar 748346

Спасибо!Нормальное видио. :-P :-P ;-) ;-) :-D :-D :-D :-D :-D

button_offline Отзыв от kdalas
avatar 413903

Супер!!! :-) ;-) :-)

button_offline Отзыв от якут
avatar 327422

Благодарствую, прикольное видео !!!

button_offline Отзыв от jonni666
avatar 616847

видео эксклюзифчег ))) афтору спс за труды !!! :w00t: :w00t: :w00t:

РЕГИСТРАЦИЯ.

Смотрите бесплатное порно или эротику

footerLeft
Информация для правообладателей На ёгли вы скачаете порно, бесплатные фильмы, а также новинки кино. Все это бесплатно и без смс.