Cкачать бесплатно фильмы.
Поиск фильмов
Log Pass забыли?
  Бесплатные фильмы
Скачать Extreme Penetrations Черезвычайное проникновение
КатегорияЖёсткое / Анал / Извращения
Похожие фильмы



Похожие онлайн фильмы
Постер фильма Extreme Penetrations Черезвычайное проникновение
Extreme Penetrations                                  Черезвычайное проникновение
Фото фильма Extreme Penetrations Черезвычайное проникновение
Extreme Penetrations                                  Черезвычайное проникновение

Обзор



ДЕВУШКА ЛЮБИТ ГАБАРИТНЫЕ ПРЕДМЕТЫ А ТАК ЖЕ ФАЛЛОСЫ!НУ И КОНЕЧНО ЖЕ МУЖСКИЕ ОРГАНЫ КОТОРЫЕ НЕ СМОЖЕТ ЗАМЕНИТЬ НИ ОДИН ФАЛЛОС!






Format                           : Windows Media
File size                          : 84.5 MiB
Duration                         : 20mn 53s
Overall bit rate mode       : Variable
Overall bit rate                : 565 Kbps
Maximum Overall bit rate  : 1 525 Kbps
Movie name                       : Extreme Penetrations #5
Encoded date                     : UTC 2005-04-14 18:35:52.886

Video
ID                                    : 2
Format                             : WMV2
Codec ID                         : WMV2
Codec ID/Info                    : Windows Media Video 8
                                        :  20mn 52s
Bit rate mode                      : Variable
Bit rate                             : 573 Kbps
Width                               : 480 pixels
Height                               : 352 pixels
Display aspect ratio             : 4:3
Frame rate                         : 23.976 fps
Resolution                           : 24 bits
Bits/(Pixel*Frame)               : 0.142
Stream size                        : 85.6 MiB
Language                           : English (US)

Audio
ID                                  : 1
Format                           : WMA
Format version                   : Version 2
Codec ID                         : 161
Codec ID/Info                    : Windows Media Audio
Duration                           : 20mn 53s
Bit rate mode                    : Constant
Bit rate                            : 64.0 Kbps
Channel(s)                       : 2 channels
Sampling rate                    : 44.1 KHz
Resolution                       : 16 bits
Stream size                      : 9.57 MiB (11%)
Language                         : English (US)






ПРИЯТНОГО ПРОСМОТРА ГОСПОДА!
Размер84.48 MB (88,588,746 байт)
Скачать Extreme Penetrations Черезвычайное проникновение

:: ОТЗЫВЫ


button_offline Отзыв от SergeiAP
avatar 503707

родить ей будет не сложней чем пукнуть :-D :-D :-D

button_offline Отзыв от козлов62
avatar 696662

ни хрена себе!!! :w00t: :w00t:

button_offline Отзыв от piranie25
avatar 461809

Спасибо !!!  :w00t: :w00t: :w00t:

button_offline Отзыв от TaranGe
avatar 754751

Мда Черезвычайного проникновения нэ палучилось киска маловата :-D

button_offline Отзыв от Glanzend
avatar 422682

Спасибо!!! Офонареть!!! :w00t: :sneaky:

button_offline Отзыв от якут
avatar 327422

Благодарствую, качественно !!!!!!!!!!!!!!!!!!!!!

РЕГИСТРАЦИЯ.

Смотрите бесплатное порно или эротику

footerLeft
Информация для правообладателей На ёгли вы скачаете порно, бесплатные фильмы, а также новинки кино. Все это бесплатно и без смс.