Cкачать бесплатно фильмы.
Поиск фильмов
Log Pass забыли?
  Бесплатные фильмы
Скачать FLOWER TUCCI - Bubble Butts Galore Флауер Туцци Пузырьковые Окурки В изобилии
КатегорияЗрелые / Жёсткое / Анал
Похожие фильмы



Похожие онлайн фильмы
Постер фильма FLOWER TUCCI - Bubble Butts Galore Флауер Туцци Пузырьковые Окурки В изобилии
FLOWER TUCCI -   Bubble Butts Galore            Флауер Туцци     Пузырьковые Окурки В изобилии
Фото фильма FLOWER TUCCI - Bubble Butts Galore Флауер Туцци Пузырьковые Окурки В изобилии
FLOWER TUCCI -   Bubble Butts Galore            Флауер Туцци     Пузырьковые Окурки В изобилии

Обзор



ВСТРЕЧАЙТЕ ДАМЫ И ГОСПОДА!КОРОЛЕВА АНАЛЬНОГО СЕКСА  С АППЕТИТНЫМ ТРЕПЕТНЫМ ЗАДОМ, СТРАСТНАЯ И НЕПРЕВЗОЙДЕННАЯ ФЛАУЕР ТУЦЦИ!


Format                           : Windows Media
File size                        : 165 MiB
Duration                         : 29mn 45s
Overall bit rate mode            : Variable
Overall bit rate                 : 774 Kbps
Maximum Overall bit rate         : 1 470 Kbps
Movie name                       : BUBBLE BUTTS GALORE #5
Encoded date                     : UTC 2008-02-20 20:37:05.745

Video
ID                               : 2
Format                           : WMV2
Codec ID                         : WMV2
Codec ID/Info                    : Windows Media Video 8
Duration                         : 29mn 43s
Bit rate mode                    : Variable
Bit rate                         : 839 Kbps
Width                            : 480 pixels
Height                           : 352 pixels
Display aspect ratio             : 4:3
Frame rate                       : 29.970 fps
Resolution                       : 24 bits
Bits/(Pixel*Frame)               : 0.166
Stream size                      : 178 MiB
Language                         : English (US)

Audio
ID                               : 1
Format                           : WMA
Format version                   : Version 2
Codec ID                         : 161
Codec ID/Info                    : Windows Media Audio
Duration                         : 29mn 45s
Bit rate mode                    : Constant
Bit rate                         : 64.0 Kbps
Channel(s)                       : 2 channels
Sampling rate                    : 44.1 KHz
Resolution                       : 16 bits
Stream size                      : 13.6 MiB (8%)
Language                         : English (US)






ПРИЯТНОГО ПРОСМОТРА ГОСПОДА!


ПОМНИТЕ! НАЖАТИЕ КНОПКИ СПАСИБО ПРОВОЦИРУЕТ АВТОРА НА НОВЫЕ РАЗДАЧИ ДЛЯ ВАС!!!
Размер164.69 MB (172,687,938 байт)
Скачать FLOWER TUCCI - Bubble Butts Galore Флауер Туцци Пузырьковые Окурки В изобилии

:: ОТЗЫВЫ


button_offline Отзыв от Lavsvip
avatar 608598

спасибо........................

button_offline Отзыв от p55554
avatar 734570

супер секс-спасибо !!!! ;-) ;-) :-P

button_offline Отзыв от proseka163
avatar 728221

Спасибо!Нормальное видио.

button_offline Отзыв от piranie25
avatar 461809

Спасибо!!!  :w00t: :w00t: :w00t:

button_offline Отзыв от Nachar
avatar 325669

Хороший фильмец, спасибо!!!

button_offline Отзыв от MOHCTP202
avatar 277681

Спасибо большое!!!!!!

button_offline Отзыв от xumuk86
avatar 640841

пасиб :-P :-P :-P :-P ;-)

button_offline Отзыв от козлов62
avatar 696662

спасибо нажат!!! ;-) :-D

button_offline Отзыв от Devilishangl
avatar 245849

Спасибо автору за труды +5 к репутации))))

button_offline Отзыв от maxtersky
avatar 732276

Спасибо!!!!!!!!!!!!!!!!

button_offline Отзыв от waw50
avatar 748346

Маша, размечтавшись, встанет раком,
Маша очень любит эту позу,
Ведь она ебется, как собака -
Вся в желаньи прыгнуть на занозу.

Значит, наша Маша – балерина,
Много у нее позиций всяких…
Как люблю смотреть я на картину -
Маша без трусов и в позе рака!

Маша – наша милая девчонка,
Маша – хулиганка, забияка;
Выучила Машенька с пеленок:
Есть такая поза – поза раком!

Машу уважают, Машу ценят -
У нее в фигурочка без брака…
Приласкают нежно и разденут,
И поставят сразу в позу рака!

Маша ходит в золоте, в брильянтах,
Думает о будущем без страха -
Для нее надежней всех гарантий
Поза счастья – это поза рака!

РЕГИСТРАЦИЯ.

Смотрите бесплатное порно или эротику

footerLeft
Информация для правообладателей На ёгли вы скачаете порно, бесплатные фильмы, а также новинки кино. Все это бесплатно и без смс.