Cкачать бесплатно фильмы.
Поиск фильмов
Log Pass забыли?
  Бесплатные фильмы
Скачать Faith Exposed - Playing Выставленная вера - игра
КатегорияМолодые
Похожие фильмы



Похожие онлайн фильмы
Постер фильма Faith Exposed - Playing Выставленная вера - игра
Faith Exposed - Playing                                    Выставленная вера - игра
Фото фильма Faith Exposed - Playing Выставленная вера - игра
Faith Exposed - Playing                                    Выставленная вера - игра

Обзор



МОЛОДАЯ АППЕТИТНАЯ ДЕВУШКА ОЧЕНЬ ЧУДНО ПОИГРАЛА СО СВОЕЙ ПИСЕЧКОЙ!







Format                           : Windows Media
File size                        : 74.8 MiB
Duration                         : 6mn 14s
Overall bit rate                 : 1 677 Kbps
Maximum Overall bit rate         : 1 664 Kbps
Encoded date                     : UTC 2006-10-27 13:38:36.000

Video
ID                               : 1
Format                           : VC-1
Format profile                   : MP
Codec ID                         : WMV3
Codec ID/Info                    : Windows Media Video 9
Codec ID/Hint                    : WMV3
Description of the codec         : Windows Media Video 9 - CBR
Duration                         : 6mn 14s
Bit rate                         : 1 585 Kbps
Width                            : 720 pixels
Height                           : 406 pixels
Display aspect ratio             : 16:9
Frame rate                       : 25.000 fps
Nominal frame rate               : 26.000 fps
Resolution                       : 24 bits
Scan type                        : Progressive
Bits/(Pixel*Frame)               : 0.217
Stream size                      : 70.7 MiB (94%)

Audio
ID                               : 2
Format                           : WMA
Format version                   : Version 2
Codec ID                         : 161
Codec ID/Info                    : Windows Media Audio
Description of the codec         : Windows Media Audio 9 - 64 kbps, 44 kHz, stereo CBR
Duration                         : 6mn 14s
Bit rate                         : 64.1 Kbps
Channel(s)                       : 2 channels
Sampling rate                    : 44.1 KHz
Resolution                       : 16 bits
Stream size                      : 2.86 MiB (4%)





ФИЛЬМ НА ЛЮБИТЕЛЯ
ПРИЯТНОГО ПРОСМОТРА ГОСПОДА! :-D
Размер74.79 MB (78,425,647 байт)
Скачать Faith Exposed - Playing Выставленная вера - игра

:: ОТЗЫВЫ


button_offline Отзыв от Toxa701
avatar 302495

:w00t: ;-) :w00t:СПАСИБО ЗА ОТЛИЧНЫЙ РОЛЕГ :w00t: ;-) :w00t:

button_offline Отзыв от BMC248
avatar 639877

класс!!!!!!!!!!! :-P :-P :-P :-P :-P :-P :-P :-P :-P

button_offline Отзыв от Radovan55555
avatar 13651

Красивый Массаж !

Познавательно !

button_offline Отзыв от козлов62
avatar 696662

прелестно!!! ;-) :-P :-D

button_offline Отзыв от piranie25
avatar 461809

Спасибо !!!  :w00t: :w00t: :w00t:

button_offline Отзыв от p55554
avatar 734570

супер-спасибо нажато !!! :w00t:

button_offline Отзыв от якут
avatar 327422

Благодарствую, прикольное видео !!!

РЕГИСТРАЦИЯ.

Смотрите бесплатное порно или эротику

footerLeft
Информация для правообладателей На ёгли вы скачаете порно, бесплатные фильмы, а также новинки кино. Все это бесплатно и без смс.