Cкачать бесплатно фильмы.
Поиск фильмов
Log Pass забыли?
  Бесплатные фильмы
Скачать Fill Her Up Наполняя ее Люси
Видео закрыто попробуйте наити похожие Fill Her Up Наполняя ее Люси
КатегорияАнал / Жёсткое / Молодые
Похожие фильмы



Похожие онлайн фильмы
Постер фильма Fill Her Up Наполняя ее Люси
Fill Her Up                                                  Наполняя ее Люси
Фото фильма Fill Her Up Наполняя ее Люси
Fill Her Up                                                  Наполняя ее Люси

Обзор



Черный нагло и настойчиво трахнул милую Люси, кончив при этом ей в ее гламурный ,упругий  и расширяющийся, то ли от боли, то ли от счастья, трепетный зад!Послушайте,как звучит эта сучка во время анала не уступает знаменитой   белокурой повернутой на анале Джесике Дарлинг!




Format                           : Windows Media
File size                        : 135 MiB
Duration                         : 22mn 10s
Overall bit rate mode            : Variable
Overall bit rate                 : 853 Kbps
Maximum Overall bit rate         : 1 667 Kbps
Movie name                       : Fill Her Up #1
Encoded date                     : UTC 2006-06-11 20:19:59.531

Video
ID                               : 2
Format                           : WMV2
Codec ID                         : WMV2
Codec ID/Info                    : Windows Media Video 8
Duration                         : 22mn 8s
Bit rate mode                    : Variable
Bit rate                         : 774 Kbps
Width                            : 480 pixels
Height                           : 352 pixels
Display aspect ratio             : 4:3
Frame rate                       : 23.976 fps
Resolution                       : 24 bits
Bits/(Pixel*Frame)               : 0.191
Stream size                      : 123 MiB (91%)
Language                         : English (US)

Audio
ID                               : 1
Format                           : WMA
Format version                   : Version 2
Codec ID                         : 161
Codec ID/Info                    : Windows Media Audio
Duration                         : 22mn 10s
Bit rate mode                    : Constant
Bit rate                         : 64.0 Kbps
Channel(s)                       : 2 channels
Sampling rate                    : 44.1 KHz
Resolution                       : 16 bits
Stream size                      : 10.2 MiB (8%)
Language                         : English (US)








ДУМАЮ ВАМ ПОНРАВИТСЯ!
ПРИЯТНОГО ПРОСМОТРА ГОСПОДА!

:-D
Размер135.25 MB (141,818,628 байт)
Скачать Fill Her Up Наполняя ее Люси
Видео закрыто попробуйте наити похожие Fill Her Up Наполняя ее Люси

:: ОТЗЫВЫ


button_offline Отзыв от козлов62
avatar 696662

здорово! только жаль.что с черным! :-D

button_offline Отзыв от piranie25
avatar 461809

Спасибо !!!  :w00t: :w00t: :w00t:

button_offline Отзыв от p55554
avatar 734570

супер секс-спасибо нажато !!! :w00t:

button_offline Отзыв от TOPHADO
avatar 463916

молодец Люся!   Натурально кричит!

button_offline Отзыв от Voine
avatar 706904

Спасибо. :-) :-) :-) :-)

button_offline Отзыв от Glanzend
avatar 422682

Спасибо!!!  :w00t: :sneaky:

button_offline Отзыв от konselieri
avatar 434256

Если чесно я не качал но твой расказ  угаварил смотреть спс посмотрим как оно стонет 8-) 8-) :!:

РЕГИСТРАЦИЯ.

Смотрите бесплатное порно или эротику

footerLeft
Информация для правообладателей На ёгли вы скачаете порно, бесплатные фильмы, а также новинки кино. Все это бесплатно и без смс.