Cкачать бесплатно фильмы.
Поиск фильмов
Log Pass забыли?
  Бесплатные фильмы
Скачать Freaks - Cody Lane Уроды - Коди Лейн
КатегорияЖёсткое / Молодые / Межрассовое
Похожие фильмы



Похожие онлайн фильмы
Постер фильма Freaks - Cody Lane Уроды - Коди Лейн
Freaks - Cody Lane                         Уроды  - Коди Лейн
Фото фильма Freaks - Cody Lane Уроды - Коди Лейн
Freaks - Cody Lane                         Уроды  - Коди Лейн

Обзор



Жесткий нигер с огромным членом упрямо и настойчиво имеет Коди Лейн!После чего заливает ей весь фейс своей спермой, или чем то похожим на сперму!





Format                           : MPEG-PS
File size                        : 348 MiB
Duration                         : 34mn 47s
Overall bit rate                 : 1 398 Kbps
Writing library                  : encoded by TMPGEnc 3.0 XPress Version. 3.0.4.24

Video
ID                               : 224 (0xE0)
Format                           : MPEG Video
Format version                   : Version 1
Format settings, Matrix          : Default
Duration                         : 34mn 47s
Bit rate mode                    : Variable
Bit rate                         : 1 215 Kbps
Nominal bit rate                 : 1 250 Kbps
Width                            : 512 pixels
Height                           : 288 pixels
Display aspect ratio             : 16:9
Frame rate                       : 29.970 fps
Scan type                        : Progressive
Bits/(Pixel*Frame)               : 0.275
Stream size                      : 302 MiB (87%)
Writing library                  : TMPGEnc 3.0 XPress Version. 3.0.4.24

Audio
ID                               : 192 (0xC0)
Format                           : MPEG Audio
Format version                   : Version 1
Format profile                   : Layer 2
Duration                         : 34mn 46s
Bit rate mode                    : Constant
Bit rate                         : 128 Kbps
Channel(s)                       : 2 channels
Sampling rate                    : 48.0 KHz
Resolution                       : 16 bits
Video delay                      : 256ms
Stream size                      : 31.8 MiB (9%)











ПРИЯТНОГО ПРОСМОТРА ГОСПОДА!
Размер348.02 MB (364,922,327 байт)
Скачать Freaks - Cody Lane Уроды - Коди Лейн

:: ОТЗЫВЫ


button_offline Отзыв от Sango Human
avatar 739835

ГОСПОДА ПРОДОЛЖАЕМ РАЗДАВАТЬ НЕ СТЕСНЯЙТЕСЬ!!! :weirdo: :weirdo: :weirdo:

button_offline Отзыв от xFARAx
avatar 433725

Ненавижу негров!!! а негров с ненастоящими хуями презираю ваще!)))

button_offline Отзыв от Sango Human
avatar 739835

СКОРО ВОЗОБНОВЛЮ РАЗДАЧУ ГОСПОДА, НУЖНО УЙТИ НЕ НА ДОЛГО РАЗДАЧА НАЧНЕТЬСЯ ПОСЛЕ 17 00 ЭТОГО ТОРРЕНТА ! :-)

button_offline Отзыв от MOHCTP202
avatar 277681

Спасибо !!!!!!!!!!!!!!!!!!

button_offline Отзыв от piranie25
avatar 461809

Спасибо !!!  :w00t: :w00t: :w00t:

button_offline Отзыв от якут
avatar 327422

Благодарствую, качественно !!!!!!!!!!!!!!!!!!!!!

РЕГИСТРАЦИЯ.

Смотрите бесплатное порно или эротику

footerLeft
Информация для правообладателей На ёгли вы скачаете порно, бесплатные фильмы, а также новинки кино. Все это бесплатно и без смс.