Cкачать бесплатно фильмы.
Поиск фильмов
Log Pass забыли?
  Бесплатные фильмы
Скачать Fuck Me Hard and Cum on My Face Трахни меня жестко и кончи мне на лицо
КатегорияАнал / Жёсткое / Молодые
Похожие фильмы



Похожие онлайн фильмы
Постер фильма Fuck Me Hard and Cum on My Face Трахни меня жестко и кончи мне на лицо
Fuck Me Hard and Cum on My Face                     Трахни меня жестко и кончи мне на лицо
Фото фильма Fuck Me Hard and Cum on My Face Трахни меня жестко и кончи мне на лицо
Fuck Me Hard and Cum on My Face                     Трахни меня жестко и кончи мне на лицо

Обзор



ГОВОРИТЬ НЕЧЕГО НАЗВАНИЕ ГОВОРИТ САМО ЗА СЕБЯ! БЛОНДУ ОТЛИЧНО ТРАХАЕТ ПАРЕНЕК ВО ВСЕ ЩЕЛИ!
ЖЕЛАЮ ПРИЯТНОГО ПРОСМОТРА!







Format                           : Windows Media
File size                        : 210 MiB
Duration                         : 25mn 20s
Overall bit rate mode            : Variable
Overall bit rate                 : 1 156 Kbps
Maximum Overall bit rate         : 1 813 Kbps
Movie name                       : Fuck Me Hard and Cum on My Face
Encoded date                     : UTC 2007-10-12 07:03:58.125

Video
ID                               : 2
Format                           : WMV2
Codec ID                         : WMV2
Codec ID/Info                    : Windows Media Video 8
Duration                         : 25mn 19s
Bit rate mode                    : Variable
Bit rate                         : 823 Kbps
Width                            : 480 pixels
Height                           : 352 pixels
Display aspect ratio             : 4:3
Frame rate                       : 23.976 fps
Resolution                       : 24 bits
Bits/(Pixel*Frame)               : 0.203
Stream size                      : 149 MiB (71%)
Language                         : English (US)

Audio
ID                               : 1
Format                           : WMA
Format version                   : Version 2
Codec ID                         : 161
Codec ID/Info                    : Windows Media Audio
Duration                         : 25mn 20s
Bit rate mode                    : Constant
Bit rate                         : 64.0 Kbps
Channel(s)                       : 2 channels
Sampling rate                    : 44.1 KHz
Resolution                       : 16 bits
Stream size                      : 11.6 MiB (6%)
Language                         : English (US)









ПРИЯТНОГО ПРОСМОТРА ГОСПОДА!


СПАСИБО ВАМ ЗА ВАШИ НАЖАТЫЕ СПАСИБО!
Размер209.61 MB (219,787,802 байт)
Скачать Fuck Me Hard and Cum on My Face Трахни меня жестко и кончи мне на лицо

:: ОТЗЫВЫ


button_offline Отзыв от sultanxan
avatar 751185

спасибо автору!!!!!!!!!

button_offline Отзыв от козлов62
avatar 696662

здорово!!! ;-) :-P :-D

button_offline Отзыв от OsBoris
avatar 748301

Нормалек, спасибо за работу  ;-)

button_offline Отзыв от konselieri
avatar 434256

не лицо а грудь
:sly: :sly: :sly:

РЕГИСТРАЦИЯ.

Смотрите бесплатное порно или эротику

footerLeft
Информация для правообладателей На ёгли вы скачаете порно, бесплатные фильмы, а также новинки кино. Все это бесплатно и без смс.