Cкачать бесплатно фильмы.
Поиск фильмов
Log Pass забыли?
  Бесплатные фильмы
Скачать Getting Stoned Tory Lane Очищеноое от косточек
КатегорияАнал
Похожие фильмы



Похожие онлайн фильмы
Постер фильма Getting Stoned Tory Lane Очищеноое от косточек
Getting Stoned Tory Lane                                       Очищеноое от косточек
Фото фильма Getting Stoned Tory Lane Очищеноое от косточек
Getting Stoned Tory Lane                                       Очищеноое от косточек

Обзор



ПРЕКРАСНАЯ TORY LANE ПОЛУЧАЕТ ОЧЕРЕДНУЮ ДОЗУ АНАЛА!
НАСЛАЖДАЙТЕСЬ ГОСПОДА!








Format                           : Windows Media
File size                        : 122 MiB
Duration                         : 17mn 44s
Overall bit rate mode            : Variable
Overall bit rate                 : 962 Kbps
Maximum Overall bit rate         : 1 286 Kbps
Movie name                       : Getting Stoned #2
Encoded date                     : UTC 2005-07-15 18:58:59.842

Video
ID                               : 2
Format                           : WMV2
Codec ID                         : WMV2
Codec ID/Info                    : Windows Media Video 8
Duration                         : 17mn 43s
Bit rate mode                    : Variable
Bit rate                         : 781 Kbps
Width                            : 480 pixels
Height                           : 352 pixels
Display aspect ratio             : 4:3
Frame rate                       : 23.976 fps
Resolution                       : 24 bits
Bits/(Pixel*Frame)               : 0.193
Stream size                      : 99.0 MiB (81%)
Language                         : English (US)

Audio
ID                               : 1
Format                           : WMA
Format version                   : Version 2
Codec ID                         : 161
Codec ID/Info                    : Windows Media Audio
Duration                         : 17mn 44s
Bit rate mode                    : Constant
Bit rate                         : 64.0 Kbps
Channel(s)                       : 2 channels
Sampling rate                    : 44.1 KHz
Resolution                       : 16 bits
Stream size                      : 8.13 MiB (7%)
Language                         : English (US)







ПРИЯТНОГО ПРОСМОТРА ГОСПОДА!
Размер122.08 MB (128,011,600 байт)
Скачать Getting Stoned Tory Lane Очищеноое от косточек

:: ОТЗЫВЫ


button_offline Отзыв от OsBoris
avatar 748301

Спасибо за работу. Отличный релиз  :w00t:

button_offline Отзыв от Vladll
avatar 349091

...можно глянуть, автору за труды нажато СПАСИБО  ;-) ;-) ;-)...

button_offline Отзыв от козлов62
avatar 696662

СПАСИБО НАЖАТ!!! ;-) :-D

button_offline Отзыв от alexblack
avatar 736460

"Очищеноое от косточек"  супер название  :-D :-D :-D :-D :-D :-D
Спасибо автору!!!  :weirdo: :weirdo: :weirdo: :weirdo:

button_offline Отзыв от konselieri
avatar 434256

советую качать всем с ней прикольные все ролики она как маньячица :-D :w00t: :w00t: 8-)

РЕГИСТРАЦИЯ.

Смотрите бесплатное порно или эротику

footerLeft
Информация для правообладателей На ёгли вы скачаете порно, бесплатные фильмы, а также новинки кино. Все это бесплатно и без смс.