Cкачать бесплатно фильмы.
Поиск фильмов
Log Pass забыли?
  Бесплатные фильмы
Скачать Gonzo mania Ava Divine Мания сумашедшего Ава Дивайн
КатегорияЗрелые / Жёсткое / Анал
Похожие фильмы



Похожие онлайн фильмы
Постер фильма Gonzo mania Ava Divine Мания сумашедшего Ава Дивайн
Gonzo mania Ava Divine                       Мания сумашедшего  Ава Дивайн
Фото фильма Gonzo mania Ava Divine Мания сумашедшего Ава Дивайн
Gonzo mania Ava Divine                       Мания сумашедшего  Ава Дивайн

Обзор



ГОСПОДА ВСТРЕЧАЕМ СУМАСШЕДШАЯ ПОРНО ЗВЕЗДА АВА ДИВАЙН!СТРАСТНАЯ И НЕНАСЫТНАЯ ПРИЯТНО ЗВУЧАЩАЯ ВО ВРЕМЯ СЕКСА Я БЫ СКАЗАЛ ДАЖЕ ЧЕРЕЗ ЧУР!ПРОСТО БЕЗ БАШЕННАЯ  ТЕЛКА ТЕМПЕРАМЕНТ ПРОСТО БОМБА!
РАЗВЛЕКАЙТЕСЬ!







Format                           : Windows Media
File size                        : 155 MiB
Duration                         : 31mn 9s
Overall bit rate mode            : Variable
Overall bit rate                 : 693 Kbps
Maximum Overall bit rate         : 1 529 Kbps
Movie name                       : GONZOMANIA #2
Encoded date                     : UTC 2008-06-04 00:26:01.321

Video
ID                               : 2
Format                           : WMV2
Codec ID                         : WMV2
Codec ID/Info                    : Windows Media Video 8
Duration                         : 31mn 7s
Bit rate mode                    : Variable
Bit rate                         : 725 Kbps
Width                            : 480 pixels
Height                           : 352 pixels
Display aspect ratio             : 4:3
Frame rate                       : 29.970 fps
Resolution                       : 24 bits
Bits/(Pixel*Frame)               : 0.143
Stream size                      : 161 MiB
Language                         : English (US)

Audio
ID                               : 1
Format                           : WMA
Format version                   : Version 2
Codec ID                         : 161
Codec ID/Info                    : Windows Media Audio
Duration                         : 31mn 9s
Bit rate mode                    : Constant
Bit rate                         : 64.0 Kbps
Channel(s)                       : 2 channels
Sampling rate                    : 44.1 KHz
Resolution                       : 16 bits
Stream size                      : 14.3 MiB (9%)
Language                         : English (US)










ПРИЯТНОГО ПРОСМОТРА ГОСПОДА!






НАЖИМАЙТЕ СПАСИБО, ПРОВОЦИРУЙТЕ МЕНЯ НА НОВЫЕ РАЗДАЧИ!
Размер154.51 MB (162,016,424 байт)
Скачать Gonzo mania Ava Divine Мания сумашедшего Ава Дивайн

:: ОТЗЫВЫ


button_offline Отзыв от kayzer
avatar 377000

ахуеное описание!!  чувствуется хороший ценитель!  :-)

button_offline Отзыв от Nail_Gun
avatar 298327

Эту как всегда, даже не еб...ут, я извеняюсь, а рвут на части...

button_offline Отзыв от Sango Human
avatar 739835

Да это факт :-D :-D :-D

button_offline Отзыв от OsBoris
avatar 748301

Нормалек, спасибо за работу  ;-)

button_offline Отзыв от козлов62
avatar 696662

какая экспрессия!!! :w00t: :-D

button_offline Отзыв от sultanxan
avatar 751185

спасибо автору!!!!!!!

button_offline Отзыв от Retil
avatar 730684

порят хорошо :-D :-D :-D :-D

button_offline Отзыв от kdalas
avatar 413903

супер!!!))) :-) ;-) :-)

button_offline Отзыв от jonni666
avatar 616847

действительно ахуенная девочка !!!!! :w00t: :w00t: :w00t: :w00t: :w00t: афтору спс

button_offline Отзыв от ЕВРО-ТИГР
avatar 663986

Спасибо!!! :w00t: :w00t: :w00t:

button_offline Отзыв от якут
avatar 327422

Благодарствую, хорошая работа !!!

РЕГИСТРАЦИЯ.

Смотрите бесплатное порно или эротику

footerLeft
Информация для правообладателей На ёгли вы скачаете порно, бесплатные фильмы, а также новинки кино. Все это бесплатно и без смс.