Cкачать бесплатно фильмы.
Поиск фильмов
Log Pass забыли?
  Бесплатные фильмы
Скачать Harley Rain Fill Her Up Харли Рейн чувство заполняет ее
КатегорияЗрелые / Жёсткое / Анал
Похожие фильмы



Похожие онлайн фильмы
Постер фильма Harley Rain Fill Her Up Харли Рейн чувство заполняет ее
Harley Rain Fill Her Up                                               Харли Рейн  чувство заполняет ее
Фото фильма Harley Rain Fill Her Up Харли Рейн чувство заполняет ее
Harley Rain Fill Her Up                                               Харли Рейн  чувство заполняет ее

Обзор



Харли Рейн прекрасно отдалась трем парням!Которые заполнили своими органами все ее отверстия!Супер стар порно!ХРЛИ РЕЙН!







Format                           : Windows Media
File size                        : 192 MiB
Duration                         : 24mn 32s
Overall bit rate mode            : Variable
Overall bit rate                 : 1 096 Kbps
Maximum Overall bit rate         : 1 462 Kbps
Movie name                       : FILL ER UP 2
Encoded date                     : UTC 2008-03-27 18:30:41.222

Video
ID                               : 2
Format                           : WMV2
Codec ID                         : WMV2
Codec ID/Info                    : Windows Media Video 8
Duration                         : 24mn 31s
Bit rate mode                    : Variable
Bit rate                         : 824 Kbps
Width                            : 480 pixels
Height                           : 352 pixels
Display aspect ratio             : 4:3
Frame rate                       : 29.970 fps
Resolution                       : 24 bits
Bits/(Pixel*Frame)               : 0.163
Stream size                      : 144 MiB (75%)
Language                         : English (US)

Audio
ID                               : 1
Format                           : WMA
Format version                   : Version 2
Codec ID                         : 161
Codec ID/Info                    : Windows Media Audio
Duration                         : 24mn 32s
Bit rate mode                    : Constant
Bit rate                         : 64.0 Kbps
Channel(s)                       : 2 channels
Sampling rate                    : 44.1 KHz
Resolution                       : 16 bits
Stream size                      : 11.2 MiB (6%)
Language                         : English









ПРИЯТНОГО ПРОСМОТРА ГОСПОДА!
Размер192.43 MB (201,774,040 байт)
Скачать Harley Rain Fill Her Up Харли Рейн чувство заполняет ее

:: ОТЗЫВЫ


button_offline Отзыв от козлов62
avatar 696662

возбуждает!!! ;-) :-P :-D

button_offline Отзыв от Sergoganet
avatar 456681

Да виагры не надо так встанет !!!!!!

button_offline Отзыв от piranie25
avatar 461809

Спасибо !!!  :w00t: :w00t: :w00t:

button_offline Отзыв от SergeiAP
avatar 503707

так то не чувство, а члены её заполняют :-D :-D

button_offline Отзыв от якут
avatar 327422

Благодарствую, хорошая работа !!!

РЕГИСТРАЦИЯ.

Смотрите бесплатное порно или эротику

footerLeft
Информация для правообладателей На ёгли вы скачаете порно, бесплатные фильмы, а также новинки кино. Все это бесплатно и без смс.