Cкачать бесплатно фильмы.
Поиск фильмов
Log Pass забыли?
  Бесплатные фильмы
Скачать Lucious Lopez - Double Teamed and Creamed Лючия Лопез - Двойная команда кончает
КатегорияАнал / Зрелые / Латинос
Похожие фильмы



Похожие онлайн фильмы
Постер фильма Lucious Lopez - Double Teamed and Creamed Лючия Лопез - Двойная команда кончает
Lucious Lopez - Double Teamed and Creamed        Лючия Лопез - Двойная команда кончает
Фото фильма Lucious Lopez - Double Teamed and Creamed Лючия Лопез - Двойная команда кончает
Lucious Lopez - Double Teamed and Creamed        Лючия Лопез - Двойная команда кончает

Обзор



ДВА ПАРНЯ ТРАХАЮТ ЛАТИНСКУЮ КОРОЛЕВУ АНАЛА ЛЮЧИЮ ЛОПЕЗ ВО СУКИНЫ ДЕТИ КАК ИМ ПОВЕЗЛО ИМЕТЬ ЭТУ ШЛЮХУ!



File size                        : 158 MiB
Duration                         : 25mn 57s
Overall bit rate mode            : Variable
Overall bit rate                 : 850 Kbps
Maximum Overall bit rate         : 1 453 Kbps
Movie name                       : Double Teamed and Creamed
Encoded date                     : UTC 2006-04-05 15:36:09.218

Video
ID                               : 2
Format                           : WMV2
Codec ID                         : WMV2
Codec ID/Info                    : Windows Media Video 8
Duration                         : 25mn 55s
Bit rate mode                    : Variable
Bit rate                         : 843 Kbps
Width                            : 480 pixels
Height                           : 352 pixels
Display aspect ratio             : 4:3
Frame rate                       : 23.976 fps
Resolution                       : 24 bits
Bits/(Pixel*Frame)               : 0.208
Stream size                      : 156 MiB (99%)
Language                         : English (US)

Audio
ID                               : 1
Format                           : WMA
Format version                   : Version 2
Codec ID                         : 161
Codec ID/Info                    : Windows Media Audio
Duration                         : 25mn 57s
Bit rate mode                    : Constant
Bit rate                         : 64.0 Kbps
Channel(s)                       : 2 channels
Sampling rate                    : 44.1 KHz
Resolution                       : 16 bits
Stream size                      : 11.9 MiB (8%)
Language                         : English (US)







ПРИЯТНОГО ПРОСМОТРА ГОСПОДА!!!





СПАСИБО ЗА НАЖАТЫЕ СПАСИБО!!!
Размер157.74 MB (165,404,012 байт)
Скачать Lucious Lopez - Double Teamed and Creamed Лючия Лопез - Двойная команда кончает

:: Отзывы



Отзывы отсутствуют.

 :: Отзывов нет
РЕГИСТРАЦИЯ.

Смотрите бесплатное порно или эротику

footerLeft
Информация для правообладателей На ёгли вы скачаете порно, бесплатные фильмы, а также новинки кино. Все это бесплатно и без смс.