Cкачать бесплатно фильмы.
Поиск фильмов
Log Pass забыли?
  Бесплатные фильмы
Скачать Mommy Elke Teaches Her Little Boy About What Girls Will Do When They Like You [incest]
КатегорияЛюбители
Похожие фильмы



Похожие онлайн фильмы
Постер фильма Mommy Elke Teaches Her Little Boy About What Girls Will Do When They Like You [incest]
Mommy Elke Teaches Her Little Boy About What Girls Will Do When They Like You [incest]
Фото фильма Mommy Elke Teaches Her Little Boy About What Girls Will Do When They Like You [incest]
Mommy Elke Teaches Her Little Boy About What Girls Will Do When They Like You [incest]

Обзор



;-) ;-) ;-)
Mommy Elke Teaches Her Little Boy About What Girls Will Do When They Like You.avi
      Format : AVI
      Format/Info : Audio Video Interleave
      File size : 135 MiB
      Duration : 16mn 30s
      Overall bit rate : 1 141 Kbps
      Writing application : Lavf50.6.0
  Video
      Format : MPEG-4 Visual
      Codec ID : DIV3
      Codec ID/Hint : DivX 3 Low
      Duration : 16mn 30s
      Bit rate : 873 Kbps
      Width : 320 pixels
      Height : 240 pixels
      Display aspect ratio : 4/3
      Frame rate : 25.000 fps
      Resolution : 24 bits
      Bits/(Pixel*Frame) : 0.455
      Stream size : 103 MiB (76%)
  Audio
      Format : MPEG Audio
      Format version : Version 1
      Format profile : Layer 3
      Codec ID : 55
      Codec ID/Hint : MP3
      Duration : 16mn 30s
      Bit rate mode : Constant
      Bit rate : 256 Kbps
      Channel(s) : 2 channels
      Sampling rate : 44.1 KHz
      Resolution : 16 bits
      Stream size : 30.2 MiB (22%)
      Alignment : Aligned on interleaves
      Interleave, duration : 26 ms (0.65 video frame)
      Writing library : LAME3.98 (alpha)
Размер134.73 MB (141,275,176 байт)
Скачать Mommy Elke Teaches Her Little Boy About What Girls Will Do When They Like You [incest]

:: ОТЗЫВЫ


button_offline Отзыв от Alessandro
avatar 404049

крутая штука)

button_offline Отзыв от sha
avatar 498352

спасибо  :-)

button_offline Отзыв от kinoregistr
avatar 600525

Спасибо!!!! ;-) ;-) ;-)

button_offline Отзыв от jjigalov
avatar 298659

спасибо посмотрим

button_offline Отзыв от 4U
avatar 303466

спасибо. Редко увидишь такое кино. Просто отлично!!!

button_offline Отзыв от maxduke
avatar 354075

Спасибо!!!

button_offline Отзыв от nrene_2005
avatar 623363

неплохо, неплохо...

button_offline Отзыв от Lestor
avatar 615119

Спасибо :-) :-) :-) :-) :-) :-)

РЕГИСТРАЦИЯ.

Смотрите бесплатное порно или эротику

footerLeft
Информация для правообладателей На ёгли вы скачаете порно, бесплатные фильмы, а также новинки кино. Все это бесплатно и без смс.