Cкачать бесплатно фильмы.
Поиск фильмов
Log Pass забыли?
  Бесплатные фильмы
Скачать Nikki Hunter - Give Me Baby Никки Хантер - Дай мне детка
КатегорияЖёсткое / Молодые / Анал
Похожие фильмы



Похожие онлайн фильмы
Постер фильма Nikki Hunter - Give Me Baby Никки Хантер - Дай мне детка
Nikki Hunter -  Give  Me Baby                           Никки Хантер - Дай мне детка
Фото фильма Nikki Hunter - Give Me Baby Никки Хантер - Дай мне детка
Nikki Hunter -  Give  Me Baby                           Никки Хантер - Дай мне детка

Обзор



ДВА ПАРНЯ УВЕРЕННО И ЖЕСТКО ТРАХАЮТ БЛОНДУ НИККИ ХАНТЕР!ЧУДНОЕ ДВОЙНОЕ СЛАЖЕННОЕ ПРОНИКНОВЕНИЕ!



File size                        : 140 MiB
Duration                         : 27mn 3s
Overall bit rate mode            : Variable
Overall bit rate                 : 722 Kbps
Maximum Overall bit rate         : 1 306 Kbps
Movie name                       : DP Me Baby
Encoded date                     : UTC 2005-08-31 00:55:52.310

Video
ID                               : 2
Format                           : WMV2
Codec ID                         : WMV2
Codec ID/Info                    : Windows Media Video 8
Duration                         : 27mn 1s
Bit rate mode                    : Variable
Bit rate                         : 570 Kbps
Width                            : 480 pixels
Height                           : 352 pixels
Display aspect ratio             : 4:3
Frame rate                       : 23.976 fps
Resolution                       : 24 bits
Bits/(Pixel*Frame)               : 0.141
Stream size                      : 110 MiB (79%)
Language                         : English (US)

Audio
ID                               : 1
Format                           : WMA
Format version                   : Version 2
Codec ID                         : 161
Codec ID/Info                    : Windows Media Audio
Duration                         : 27mn 3s
Bit rate mode                    : Constant
Bit rate                         : 64.0 Kbps
Channel(s)                       : 2 channels
Sampling rate                    : 44.1 KHz
Resolution                       : 16 bits
Stream size                      : 12.4 MiB (9%)
Language                         : English (US)









ПРИЯТНОГО ПРОСМОТРА ГОСПОДА!





СПАСИБО ЗА ВАШИ НАЖАТЫЕ СПАСИБО!
Размер139.69 MB (146,478,940 байт)
Скачать Nikki Hunter - Give Me Baby Никки Хантер - Дай мне детка

:: ОТЗЫВЫ


button_offline Отзыв от SenseDeath
avatar 463176

Спасибо отлично!  :w00t: :w00t: :w00t:

button_offline Отзыв от козлов62
avatar 696662

спасибо не забыл!!! :-D

button_offline Отзыв от MOHCTP202
avatar 277681

Спасибо !!!!!!!!!!!!!!!!

button_offline Отзыв от якут
avatar 327422

Благодарствую, прикольное видео !!!

РЕГИСТРАЦИЯ.

Смотрите бесплатное порно или эротику

footerLeft
Информация для правообладателей На ёгли вы скачаете порно, бесплатные фильмы, а также новинки кино. Все это бесплатно и без смс.