Cкачать бесплатно фильмы.
Поиск фильмов
Log Pass забыли?
  Бесплатные фильмы
Скачать Olivia Parrish
Видео закрыто попробуйте наити похожие Olivia Parrish
КатегорияГруди
Похожие фильмы



Похожие онлайн фильмы
Постер фильма Olivia Parrish
Olivia Parrish
Фото фильма Olivia Parrish
Olivia Parrish

Обзор



:w00t: :w00t: :w00t:
Format                          : AVI
Format/Info                      : Audio Video Interleave
File size                        : 176 MiB
Duration                        : 14 perc
Overall bit rate                : 1 704 Kbps

Kép
Format                          : MPEG-4 Visual
Format profile                  : Streaming Video@L1
Format settings, BVOP            : Igen
Format settings, QPel            : Nem
Format settings, GMC            : 0 warppoint
Format settings, Matrix          : Default (H.263)
Codec ID                        : XVID
Codec ID/Hint                    : XviD
Duration                        : 14 perc
Bit rate                        : 1 597 Kbps
Width                            : 640 képpont
Height                          : 480 képpont
Display aspect ratio            : 4/3
Frame rate                      : 29,970 fps
Resolution                      : 24 bit
Colorimetry                      : 4:2:0
Scan type                        : Folytonos
Bits/(Pixel*Frame)              : 0.173
Stream size                      : 165 MiB (94%)
Writing library                  : XviD 1.1.0 (UTC 2005-11-22)

Hang
Format                          : MPEG Audio
Format version                  : Version 1
Format profile                  : Layer 3
Codec ID                        : 55
Codec ID/Hint                    : MP3
Duration                        : 14 perc
Bit rate mode                    : állandó
Bit rate                        : 96,0 Kbps
Channel(s)                      : 2 csatorna
Sampling rate                    : 44,1 KHz
Resolution                      : 16 bit
Stream size                      : 9,91 MiB (6%)
Interleave, duration            : 33 emp (1,00 képkocka)


Размер176.02 MB (184,570,726 байт)
Скачать Olivia Parrish
Видео закрыто попробуйте наити похожие Olivia Parrish

:: ОТЗЫВЫ


button_offline Отзыв от maxduke
avatar 354075

Спасибо!!!

button_offline Отзыв от redalarm
avatar 497025

спасибо  :w00t: :w00t: :w00t:

button_offline Отзыв от SimOstap
avatar 506760

Спасибо за отличное кино  :-)

button_offline Отзыв от prezident
avatar 320174

хорошая сисясточка :-D

РЕГИСТРАЦИЯ.

Смотрите бесплатное порно или эротику

footerLeft
Информация для правообладателей На ёгли вы скачаете порно, бесплатные фильмы, а также новинки кино. Все это бесплатно и без смс.