Cкачать бесплатно фильмы.
Поиск фильмов
Log Pass забыли?
  Бесплатные фильмы
Скачать The Bad Housewife Плохая домохозяйка
КатегорияАнал / Зрелые
Похожие фильмы



Похожие онлайн фильмы
Постер фильма The Bad Housewife Плохая домохозяйка
The Bad Housewife                                  Плохая домохозяйка
Фото фильма The Bad Housewife Плохая домохозяйка
The Bad Housewife                                  Плохая домохозяйка

Обзор



И ВОТ ЗА ТО ЧТО ОНА ТАКАЯ ПЛОХАЯ ЕЕ ХОРОШО ОТОДРАЛИ!!!И В АНУС В ТОМ ЧИСЛЕ!




Format                           : Windows Media
File size                        : 176 MiB
Duration                         : 22mn 26s
Overall bit rate mode            : Constant
Overall bit rate                 : 1 095 Kbps
Maximum Overall bit rate         : 1 104 Kbps
Encoded date                     : UTC 2006-09-12 10:09:50.736

Video
ID                               : 2
Format                           : VC-1
Format profile                   : MP
Codec ID                         : WMV3
Codec ID/Info                    : Windows Media Video 9
Codec ID/Hint                    : WMV3
Description of the codec         : Windows Media Video 9 - Professional
Duration                         : 22mn 25s
Bit rate mode                    : Constant
Bit rate                         : 1 043 Kbps
Width                            : 720 pixels
Height                           : 480 pixels
Display aspect ratio             : 1.500
Frame rate                       : 29.970 fps
Standard                         : NTSC
Resolution                       : 24 bits
Scan type                        : Progressive
Bits/(Pixel*Frame)               : 0.101
Stream size                      : 167 MiB (95%)
Language                         : English (US)

Audio
ID                               : 1
Format                           : WMA
Format version                   : Version 2
Codec ID                         : 161
Codec ID/Info                    : Windows Media Audio
Description of the codec         : Windows Media Audio 9.1 -  48 kbps, 44 kHz, mono (A/V) 1-pass CBR
Duration                         : 22mn 26s
Bit rate mode                    : Constant
Bit rate                         : 48.0 Kbps
Channel(s)                       : 1 channel
Sampling rate                    : 44.1 KHz
Resolution                       : 16 bits
Stream size                      : 7.71 MiB (4%)
Language                         : English (US)








ПРИЯТНОГО ПРОСМОТРА ГОСПОДА!


НАЖАТИЕ КНОПКИ СПАСИБО ВДОХНОВИТ АВТОРА НА ДАЛЬНЕЙШИЕ РАЗДАЧИ!!!
Размер175.76 MB (184,301,474 байт)
Скачать The Bad Housewife Плохая домохозяйка

:: ОТЗЫВЫ


button_offline Отзыв от Lavsvip
avatar 608598

спасибо...........................

button_offline Отзыв от якут
avatar 327422

Благодарствую, прикольное видео !!!

button_offline Отзыв от proseka163
avatar 728221

Спасибо!Нормальное видио.

button_offline Отзыв от maxduke
avatar 354075

Спасибо!!! :w00t: :w00t: :w00t:

button_offline Отзыв от Voine
avatar 706904

Спасибо. :-D :-D :-D

button_offline Отзыв от Nachar
avatar 325669

Хороший фильмец, спасибо!!!

button_offline Отзыв от MOHCTP202
avatar 277681

Спасибо большое!!!!!!

button_offline Отзыв от xumuk86
avatar 640841

спасиб :-D :-D :-D :-D

button_offline Отзыв от козлов62
avatar 696662

спасибо нажат!!! ;-) :-D

button_offline Отзыв от SenseDeath
avatar 463176

Спасибо отлично!  :w00t: :w00t: :w00t:

РЕГИСТРАЦИЯ.

Смотрите бесплатное порно или эротику

footerLeft
Информация для правообладателей На ёгли вы скачаете порно, бесплатные фильмы, а также новинки кино. Все это бесплатно и без смс.