Cкачать бесплатно фильмы.
Поиск фильмов
Log Pass забыли?
  Бесплатные фильмы
Скачать Ultimate Dawn Stone
Видео закрыто попробуйте наити похожие Ultimate Dawn Stone
КатегорияГруди
Похожие фильмы



Похожие онлайн фильмы
Постер фильма Ultimate Dawn Stone
Ultimate Dawn Stone
Фото фильма Ultimate Dawn Stone
Ultimate Dawn Stone

Обзор



:w00t: :w00t: :w00t:
Format                          : AVI
Format/Info                      : Audio Video Interleave
File size                        : 351 MiB
Duration                        : 23mn 2s
Overall bit rate                : 2 132 Kbps
Writing application              : MEncoder Sherpya-SVN-r27811-4.2.5
Writing library                  : MPlayer

Video
Format                          : MPEG-4 Visual
Format profile                  : Simple@L3
Format settings, BVOP            : No
Format settings, QPel            : No
Format settings, GMC            : No warppoints
Format settings, Matrix          : Default (H.263)
Codec ID                        : XVID
Codec ID/Hint                    : XviD
Duration                        : 23mn 2s
Bit rate                        : 2 000 Kbps
Width                            : 640 pixels
Height                          : 464 pixels
Display aspect ratio            : 1.379
Frame rate                      : 29.970 fps
Resolution                      : 24 bits
Colorimetry                      : 4:2:0
Scan type                        : Progressive
Bits/(Pixel*Frame)              : 0.225
Stream size                      : 329 MiB (94%)
Writing library                  : XviD 1.1.2 (UTC 2006-11-01)

Audio
Format                          : MPEG Audio
Format version                  : Version 1
Format profile                  : Layer 3
Codec ID                        : 55
Codec ID/Hint                    : MP3
Duration                        : 23mn 2s
Bit rate mode                    : Variable
Bit rate                        : 119 Kbps
Channel(s)                      : 2 channels
Sampling rate                    : 44.1 KHz
Resolution                      : 16 bits
Stream size                      : 19.6 MiB (6%)
Alignment                        : Aligned on interleaves
Interleave, duration            : 26 ms (0.78 video frame)
Interleave, preload duration    : 560 ms


Размер351.33 MB (368,395,478 байт)
Скачать Ultimate Dawn Stone
Видео закрыто попробуйте наити похожие Ultimate Dawn Stone

:: ОТЗЫВЫ


button_offline Отзыв от redalarm
avatar 497025

спасибо  :w00t: :w00t: :w00t:

button_offline Отзыв от SimOstap
avatar 506760

Спасибо за отличное кино  :-)

button_offline Отзыв от Ruslankoff
avatar 269940

Спасибо большое! Что за телка то не знаете? Если знает кто напишите в личку пожалуйста

button_offline Отзыв от Spotted
avatar 201229

Да кстати как звать чувиху мне тоже интересно :-D СПАСИБО!

РЕГИСТРАЦИЯ.

Смотрите бесплатное порно или эротику

footerLeft
Информация для правообладателей На ёгли вы скачаете порно, бесплатные фильмы, а также новинки кино. Все это бесплатно и без смс.