Cкачать бесплатно фильмы.
Поиск фильмов
Log Pass забыли?
  Бесплатные фильмы
Скачать Very Sexy Amateur Brunette Teen Hot Fucked in the Bath
КатегорияЛюбители
Похожие фильмы



Похожие онлайн фильмы
Постер фильма Very Sexy Amateur Brunette Teen Hot Fucked in the Bath
Very Sexy Amateur Brunette Teen Hot Fucked in the Bath

Обзор



Genre: teen brunette amateur amateursex amateurporn hairy hairy.pussy natural.tits homemade homesex homeporn private sextape
Playtime: 10:34

Description: File Size: 131 Mb | Resolution: 640x480 | Duration: 10:34 | Format: .avi

Format : AVI
Format/Info : Audio Video Interleave
File size : 132 MiB
Duration : 10mn 34s
Overall bit rate : 1 742 Kbps
Writing application : Lavf52.39.1

Video
ID : 0
Format : xvid
Codec ID : xvid
Duration : 10mn 34s
Bit rate : 1 665 Kbps
Width : 640 pixels
Height : 480 pixels
Display aspect ratio : 4:3
Frame rate : 29.000 fps
Bits/(Pixel*Frame) : 0.187
Stream size : 126 MiB (96%)

Audio
ID : 1
Format : MPEG Audio
Format version : Version 1
Format profile : Layer 3
Mode : Joint stereo
Mode extension : MS Stereo
Codec ID : 55
Codec ID/Hint : MP3
Duration : 10mn 34s
Bit rate mode : Constant
Bit rate : 64.0 Kbps
Channel(s) : 2 channels
Sampling rate : 44.1 KHz
Compression mode : Lossy
Stream size : 4.84 MiB (4%)
Alignment : Aligned on interleaves
Interleave, duration : 26 ms (0.76 video frame)

Quality: CamRip
Format: AVI
Video codec: XviD
Audio codec: MPEG Audio
Screenshots
http://galhost.ru/allimage/4/2782-thumb.jpeg

http://galhost.ru/allimage/4/2783-thumb.jpeg

http://2.firepic.org/2/images/2013-04/30/bfyrlgz4xl9f.jpg
http://2.firepic.org/2/images/2013-04/30/sog0exzvhz3o.jpg

Размер131.73 MB (138,126,832 байт)
Скачать Very Sexy Amateur Brunette Teen Hot Fucked in the Bath

:: ОТЗЫВЫ


button_offline Отзыв от kibora
avatar 611697

:w00t: :w00t: :w00t: :w00t: :-D :-D :-D :-D :-D

button_offline Отзыв от pasha74_74
avatar 743098

:w00t: :w00t: :w00t: :w00t: ;-) :-( :-( :-( :weirdo: :shit:

РЕГИСТРАЦИЯ.

Смотрите бесплатное порно или эротику

footerLeft
Информация для правообладателей На ёгли вы скачаете порно, бесплатные фильмы, а также новинки кино. Все это бесплатно и без смс.