Cкачать бесплатно фильмы.
Поиск фильмов
Log Pass забыли?
  Бесплатные фильмы
Скачать Wendy Whoppers-More Than....
Видео закрыто попробуйте наити похожие Wendy Whoppers-More Than....
КатегорияГруди
Похожие фильмы



Похожие онлайн фильмы
Постер фильма Wendy Whoppers-More Than....
Wendy Whoppers-More Than....
Фото фильма Wendy Whoppers-More Than....
Wendy Whoppers-More Than....

Обзор



;-) ;-) ;-)
Format                          : AVI
Format/Info                      : Audio Video Interleave
File size                        : 88,8 MiB
Duration                        : 8 perc
Overall bit rate                : 1 505 Kbps
Writing library                  : Boilsoft Joiner build 2411/release

Kép
Format                          : MPEG-4 Visual
Format profile                  : Streaming Video@L1
Format settings, BVOP            : Igen
Format settings, QPel            : Nem
Format settings, GMC            : 0 warppoint
Format settings, Matrix          : Default (H.263)
Codec ID                        : XVID
Codec ID/Hint                    : XviD
Duration                        : 8 perc
Bit rate                        : 1 398 Kbps
Width                            : 640 képpont
Height                          : 480 képpont
Display aspect ratio            : 4/3
Frame rate                      : 29,970 fps
Resolution                      : 24 bit
Colorimetry                      : 4:2:0
Scan type                        : Folytonos
Bits/(Pixel*Frame)              : 0.152
Stream size                      : 82,5 MiB (93%)
Writing library                  : XviD 1.1.0 Beta2 (UTC 2005-04-04)

Hang
Format                          : MPEG Audio
Format version                  : Version 1
Format profile                  : Layer 3
Codec ID                        : 55
Codec ID/Hint                    : MP3
Duration                        : 8 perc
Bit rate mode                    : állandó
Bit rate                        : 96,0 Kbps
Channel(s)                      : 2 csatorna
Sampling rate                    : 44,1 KHz
Resolution                      : 16 bit
Video delay                      : 10emp
Stream size                      : 5,66 MiB (6%)
Interleave, duration            : 33 emp (1,00 képkocka)
Interleave, preload duration    : 500 ms


Размер88.84 MB (93,151,232 байт)
Скачать Wendy Whoppers-More Than....
Видео закрыто попробуйте наити похожие Wendy Whoppers-More Than....

:: ОТЗЫВЫ


button_offline Отзыв от AVVadim
avatar 310414

ПОВТОР

button_offline Отзыв от sanja1977
avatar 294691

AVVadim писал
ПОВТОР

da ladno 6to srazu tak kri4at nu ne zametil ja,skem ne bivajet!!!

button_offline Отзыв от vitek911
avatar 364901

ПРИКОЛЬHO ! 8-)

button_offline Отзыв от maxduke
avatar 354075

Спасибо!!!

button_offline Отзыв от terr123
avatar 328536

спасибо 8-)

button_offline Отзыв от AVVadim
avatar 310414

sanja1977 писал
[quote=AVVadim]ПОВТОР

da ladno 6to srazu tak kri4at nu ne zametil ja,skem ne bivajet!!![/quote]
Да без обид :-)Все гуд. с каждым бывает...

button_offline Отзыв от sashavip
avatar 404693

спасибо!!! :-O

button_offline Отзыв от grmtvnk
avatar 625008

Спасибо !!!

РЕГИСТРАЦИЯ.

Смотрите бесплатное порно или эротику

footerLeft
Информация для правообладателей На ёгли вы скачаете порно, бесплатные фильмы, а также новинки кино. Все это бесплатно и без смс.