Cкачать бесплатно фильмы.
Поиск фильмов
Log Pass забыли?
  Бесплатные фильмы
Скачать Ава Дивайн - Ava Devine Fisting and the Asian Persuasion
КатегорияЗрелые / Анал
Похожие фильмы



Похожие онлайн фильмы
Постер фильма Ава Дивайн - Ava Devine Fisting and the Asian Persuasion
Ава Дивайн  - Ava Devine Fisting and the Asian Persuasion
Фото фильма Ава Дивайн - Ava Devine Fisting and the Asian Persuasion
Ава Дивайн  - Ava Devine Fisting and the Asian Persuasion

Обзор



Вот она, сумасшедшая шлюха Ава!Смотрите и наслаждайтесь этой помешанной на анале сукой! :weirdo: :weirdo: :weirdo:



File size                        : 653 MiB
Duration                         : 38mn 8s
Overall bit rate                 : 2 392 Kbps
Maximum Overall bit rate         : 2 364 Kbps
Encoded date                     : UTC 1970-01-01 00:00:00.000

Video
ID                               : 1
Format                           : WMV2
Codec ID                         : WMV2
Codec ID/Info                    : Windows Media Video 8
Description of the codec         : wmv2
Duration                         : 38mn 6s
Bit rate                         : 2 225 Kbps
Width                            : 768 pixels
Height                           : 432 pixels
Display aspect ratio             : 16:9
Frame rate                       : 29.970 fps
Resolution                       : 24 bits
Bits/(Pixel*Frame)               : 0.224
Stream size                      : 606 MiB (93%)

Audio
ID                               : 2
Format                           : WMA
Format version                   : Version 2
Codec ID                         : 161
Codec ID/Info                    : Windows Media Audio
Description of the codec         : Windows Media Audio V8
Duration                         : 38mn 8s
Bit rate                         : 64.0 Kbps
Channel(s)                       : 2 channels
Sampling rate                    : 48.0 KHz
Resolution                       : 16 bits
Stream size                      : 17.5 MiB (3%)

:-D :-D :-D :-D :w00t: :w00t: :w00t: :!:
Размер652.75 MB (684,459,183 байт)
Скачать Ава Дивайн - Ava Devine Fisting and the Asian Persuasion

:: ОТЗЫВЫ


button_offline Отзыв от Glanzend
avatar 422682

А всё равно туда же...., вот жизнь...

button_offline Отзыв от swoolf
avatar 721042

Извини братан... Не удержался... Народ устал ждать...

button_offline Отзыв от Sango Human
avatar 739835

БОЛЬШИЕ  ЖОПЫ МОЙ ПРОХФИЛЬ! :-D :-D :-D :-D :-D :-D :-D :-D :-D

button_offline Отзыв от ramm
avatar 297035

да уж,бодрая старушенция,спасибо :-D :- :w00t: :-D

button_offline Отзыв от kiborg666
avatar 319223

мерзкая  :weirdo:  :weirdo: :weirdo:

РЕГИСТРАЦИЯ.

Смотрите бесплатное порно или эротику

footerLeft
Информация для правообладателей На ёгли вы скачаете порно, бесплатные фильмы, а также новинки кино. Все это бесплатно и без смс.