Cкачать бесплатно фильмы.
Поиск фильмов
Log Pass забыли?
  Бесплатные фильмы
Скачать Ава Роуз - Ava Rose - It s Bigger, It s Better, It s Badder
КатегорияАнал
Похожие фильмы



Похожие онлайн фильмы
Постер фильма Ава Роуз - Ava Rose - It s Bigger, It s Better, It s Badder
Ава Роуз - Ava Rose - It s Bigger, It s Better, It s Badder
Фото фильма Ава Роуз - Ava Rose - It s Bigger, It s Better, It s Badder
Ава Роуз - Ava Rose - It s Bigger, It s Better, It s Badder

Обзор



She's got triple B's on her, Ava Rose shows us why she's considered to have one of the best asses in the business and she will show you how deep that hole gapes.

Имя файла: bwb_ava_rose-sd169.wmv
Формат файла: .wmv (Windows Media)
Размер файла: 577,77 MB
Длительность: 34mn 18s
Навигация по главам: Нет
Bitrate (все потоки): 2 355 Kbps
Bitrate (все потоки, максимальный): 2 386 Kbps
Тип битрейта (все потоки): Constant
Файл создан...: UTC 2010-03-23 18:46:57.255
Название: bwb_ava_rose-sd169

Тип потока: Видео
Длительность: 00:34:18
Кодек: VC-1
Кодек/Профиль: MP@HL
Кодек/ID: WMV3
Размеры изображения: 768 x 432 (16:9)
Частота кадров: 29.970 fps
Размер потока: 564 MiB (98%)
Битрейт: 2 300 Kbps

Тип потока: Звук #1
Длительность: 00:34:18.077
Кодек: WMA
Кодек/ID: 161
Частота дискретизации: 44.1 KHz
Каналов: 2 channels
Битрейт: 64.0 Kbps
Размер потока: 15.7 MiB (3%)
Размер577.77 MB (605,831,196 байт)
Скачать Ава Роуз - Ava Rose - It s Bigger, It s Better, It s Badder

:: ОТЗЫВЫ


button_offline Отзыв от YourError
avatar 328123

Данное видео на трекере есть , но с 0 сидов и в HD

РЕГИСТРАЦИЯ.

Смотрите бесплатное порно или эротику

footerLeft
Информация для правообладателей На ёгли вы скачаете порно, бесплатные фильмы, а также новинки кино. Все это бесплатно и без смс.