Cкачать бесплатно фильмы.
Поиск фильмов
Log Pass забыли?
  Бесплатные фильмы
Скачать Анал для блонды - Skyler Price
КатегорияАнал / Груди
Похожие фильмы



Похожие онлайн фильмы
Постер фильма Анал для блонды - Skyler Price
Анал для блонды - Skyler Price

Обзор



Блондинку ебут в жопу

http://thumbnails115.imagebam.com/50437/6c68ae504367464.jpg http://thumbnails116.imagebam.com/50437/f139b0504367465.jpg http://thumbnails115.imagebam.com/50437/45afde504367467.jpg http://thumbnails116.imagebam.com/50437/ed12be504367468.jpg http://thumbnails116.imagebam.com/50437/ab334e504367469.jpg http://thumbnails116.imagebam.com/50437/e44d75504367470.jpg http://thumbnails116.imagebam.com/50437/355e27504367471.jpg http://thumbnails116.imagebam.com/50437/7a4e8c504367472.jpg

General
Complete name                  : C:UsersUserDownloadsAvsPhelpSkyler Price.mp4
Format                         : MPEG-4
Format profile                 : Base Media / Version 2
Codec ID                       : mp42
File size                      : 116 MiB
Duration                       : 9mn 51s
Overall bit rate mode          : Variable
Overall bit rate               : 1 646 Kbps
Writing application            : Lavf55.33.100

Video
ID                             : 201
Format                         : AVC
Format/Info                    : Advanced Video Codec
Format profile                 : High@L3.1
Format settings, CABAC         : Yes
Format settings, ReFrames      : 4 frames
Codec ID                       : avc1
Codec ID/Info                  : Advanced Video Coding
Duration                       : 9mn 51s
Bit rate                       : 1 500 Kbps
Width                          : 1 280 pixels
Height                         : 720 pixels
Display aspect ratio           : 16:9
Frame rate mode                : Constant
Frame rate                     : 30.000 fps
Color space                    : YUV
Chroma subsampling             : 4:2:0
Bit depth                      : 8 bits
Scan type                      : Progressive
Bits/(Pixel*Frame)             : 0.054
Stream size                    : 106 MiB (91%)
Writing library                : x264 core 142 r2 ac76440
Encoding settings              : cabac=1 / ref=3 / deblock=1:0:0 / analyse=0x3:0x113 / me=hex / subme=7 / psy=1 / psy_rd=1.00:0.00 / mixed_ref=1 / me_range=16 / chroma_me=1 / trellis=1 / 8x8dct=1 / cqm=0 / deadzone=21,11 / fast_pskip=1 / chroma_qp_offset=-2 / threads=1 / lookahead_threads=1 / sliced_threads=0 / nr=0 / decimate=1 / interlaced=0 / bluray_compat=0 / constrained_intra=0 / bframes=3 / b_pyramid=2 / b_adapt=1 / b_bias=0 / direct=1 / weightb=1 / open_gop=0 / weightp=2 / keyint=50 / keyint_min=5 / scenecut=40 / intra_refresh=0 / rc_lookahead=40 / rc=cbr / mbtree=1 / bitrate=1500 / ratetol=1.0 / qcomp=0.60 / qpmin=0 / qpmax=69 / qpstep=4 / vbv_maxrate=1500 / vbv_bufsize=3000 / nal_hrd=none / filler=0 / ip_ratio=1.40 / aq=1:1.00
Tagged date                    : UTC 2015-03-16 16:04:50

Audio
ID                             : 101
Format                         : AAC
Format/Info                    : Advanced Audio Codec
Format profile                 : LC
Codec ID                       : 40
Duration                       : 9mn 51s
Bit rate mode                  : Variable
Bit rate                       : 64.0 Kbps
Maximum bit rate               : 1 500 Kbps
Channel(s)                     : 2 channels
Channel positions              : Front: L R
Sampling rate                  : 48.0 KHz
Compression mode               : Lossy
Stream size                    : 4.51 MiB (4%)
Tagged date                    : UTC 2015-03-16 16:04:50

Other #1
ID                             : 2
Type                           : Object description
Format                         : System
Codec ID                       : 1
Duration                       : 1s 0ms
Encoded date                   : UTC 2015-03-16 16:04:49
Tagged date                    : UTC 2015-03-16 16:04:50

Other #2
ID                             : 1
Type                           : Scene description
Format                         : System Core
Codec ID                       : 2
Duration                       : 1s 0ms
Encoded date                   : UTC 2015-03-16 16:04:49
Tagged date                    : UTC 2015-03-16 16:04:50

Other #3
ID                             : 65736
Type                           : Hint
Format                         : RTP
Codec ID                       : rtp
Duration                       : 9mn 51s
Encoded date                   : UTC 2015-03-16 16:04:49
Tagged date                    : UTC 2015-03-16 16:04:50

Other #4
ID                             : 65636
Type                           : Hint
Format                         : RTP
Codec ID                       : rtp
Duration                       : 9mn 51s
Encoded date                   : UTC 2015-03-16 16:04:50
Tagged date                    : UTC 2015-03-16 16:04:50
Bit rate mode                  : VBR

Размер116.12 MB (121,765,658 байт)
Скачать Анал для блонды - Skyler Price

:: Отзывы



Отзывы отсутствуют.

 :: Отзывов нет
РЕГИСТРАЦИЯ.

Смотрите бесплатное порно или эротику

footerLeft
Информация для правообладателей На ёгли вы скачаете порно, бесплатные фильмы, а также новинки кино. Все это бесплатно и без смс.